ML
     
  Уважаемый Гость!
Вы можете поддержать проект и зарегистрироваться у наших партнеров - онлайн-стратегия MyLands. При регистрации в игре Вы получите код, который сможете активировать после регистрации на pirat.ca и получить 1000 дублонов.

Ваш код:
1a5b0a965618b2c406d4279ec9924ee6282c60cf
 
     

13 РАУНД (Булат Юсупов) [2011 г., Драма, Спорт, DVDRip]

Ответить на тему
 
Автор
Сообщение

Пост 28-Окт-2011 01:34

[Q] 

zyyx

13 РАУНД
Год выпуска: 2011
Жанр: Драма, Спорт
Продолжительность: 01:21:13
Режиссер: Булат Юсупов
В ролях: Рушанна Бабич, Айсыуак Юмагулов, Мурад Тувалбаев, Полина Шабаева, Николай Рихтер, Вакиля Калмантаева, Анатолий Хаустов, Владимир Епифанов
Описание: Гимназист Рафаэль, занимающийся боксом в школе олимпийского резерва, неожиданно узнаёт, что его мама тяжела больна. Спасти её может только операция. Но для этого требуется большая сумма денег, которых у семьи нет. Рафаэль делает всё возможное, чтобы спасти маму.
Доп. информация: http://multi-up.com/580657
Качество: DVDRip
Формат: AVI
Видео кодек: XviD
Аудио кодек: AC3
Видео: 720x408, 2191 Кбит/сек, 29,970 fps, 0.25 bit/pixel
Аудио: AC-3, 192 Кбит/сек, 48,0 КГц, 2 ch
Общее
Полное имя : D:\pirat.ca\13.raund.avi
Формат : AVI
Формат/Информация : Audio Video Interleave
Размер файла : 1,36 Гбайт
Продолжительность : 1 ч. 21 м.
Общий поток : 2395 Кбит/сек
Программа кодирования : VirtualDubMod 1.5.10.3 | www.virtualdub-fr.org || (build 2550/release)
Библиотека кодирования : VirtualDubMod build 2550/release
Видео
Идентификатор : 0
Формат : MPEG-4 Visual
Профиль формата : Advanced [email protected]
Параметр BVOP формата : 1
Параметр QPel формата : Нет
Параметр GMC формата : Без точки перехода
Параметр матрицы формата : Default (H.263)
Идентификатор кодека : XVID
Идентификатор кодека/Подсказка : XviD
Продолжительность : 1 ч. 21 м.
Битрейт : 2191 Кбит/сек
Ширина : 720 пикселей
Высота : 408 пикселей
Соотношение сторон : 16:9
Частота кадров : 29,970 кадров/сек
Цветовое пространство : YUV
Субдискретизация насыщенности : 4:2:0
Битовая глубина : 8 бит
Тип развёртки : Прогрессивная
Метод сжатия : С потерями
Бит/(Пиксели*Кадры) : 0.249
Размер потока : 1,24 Гбайт (91%)
Библиотека кодирования : XviD 1.2.1 (UTC 2008-12-04)
Аудио
Идентификатор : 1
Формат : AC-3
Формат/Информация : Audio Coding 3
Расширение режима : CM (complete main)
Идентификатор кодека : 2000
Продолжительность : 1 ч. 21 м.
Вид битрейта : Постоянный
Битрейт : 192 Кбит/сек
Каналы : 2 канала
Расположение каналов : Front: L R
Частота : 48,0 КГц
Битовая глубина : 16 бит
Метод сжатия : С потерями
Размер потока : 112 Мбайт (8%)
Выравнивание : Разделение по промежуткам
Продолжительность промежутка : 33 мс. (1,00 видеокадр)
Время предзагрузки промежутка : 500 мс.




Download / Скачать

Хотите скачать бесплатно? Зарегистрируйтесь на сайте (ссылка на регистрацию). Pirat.ca - самый быстрый торрент трекер в рунете!

Как скачивать  ·   Что такое торрент  ·   Рейтинг и ограничения

Пост 28-Окт-2011 05:31 (спустя 3 часа)

Топик был перенесен из форума Наше Кино в форум Новинки (BDRip/HDRip/DVDRip/DVDScr/ТС/SATRip/WP )

Чужая
 

Пост 08-Дек-2011 10:55 (спустя 1 месяц 11 дней)

Топик был перенесен из форума Новинки (HD|DVD|BD|TV|SAT|PDTV| - Rips) в форум Российские фильмы

oliks
 
Показать сообщения:    
Ответить на тему

Текущее время: Сегодня 23:49

Часовой пояс: GMT + 4



Вы не можете начинать темы
Вы не можете отвечать на сообщения
Вы не можете редактировать свои сообщения
Вы не можете удалять свои сообщения
Вы не можете голосовать в опросах
Вы не можете прикреплять файлы к сообщениям
Вы не можете скачивать файлы

▼ Вниз