ML
     
  Уважаемый Гость!
Вы можете поддержать проект и зарегистрироваться у наших партнеров - онлайн-стратегия MyLands. При регистрации в игре Вы получите код, который сможете активировать после регистрации на pirat.ca и получить 1000 дублонов.

Ваш код:
ec3b26eefbcdc72e08e9fd33c6846bb2ca10f8b1
 
     

Ширли-мырли (Владимир Меньшов) [1995 г., Комедия, DVDRip]

Ответить на тему
 
Автор
Сообщение

Пост 03-Ноя-2011 19:40

[Q] 

RIIDDIK

Шкипер

Ширли-мырли
Год выпуска: 1995
Жанр: Комедия
Продолжительность: 02:15:15
Режиссер: Владимир Меньшов
В ролях: Валерий Гаркалин, Вера Алентова, Инна Чурикова, Игорь Угольников, Армен Джигарханян, Олег Табаков, Леонид Куравлев, Нонна Мордюкова, Любовь Полищук, Сергей Баталов, Лев Борисов, Сергей Арцибашев, Михаил Кокшенов, Александр Панкратов-Черный, Александр Ворошило, Инна Кара-Моско, Евгений Герчаков, Всеволод Санаев, Владимир Меньшов, Нина Алисова, Алексей Булдаков, Евгений Весник, Ролан Быков, Олег Ефремов, Аркадий Коваль
Описание: Невероятная история о братьях — близнецах, никогда прежде не слыхавших друг о друге. Один из них, в младенчестве подброшенный в табор, стал цыганским бароном; другой рос в детском доме — и теперь он еврей — музыкант с мировым именем; третьего воспитывалародная тетя, и домашнее воспитание принесло свои плоды: он стал авторитетнейшим в СНГ вором и аферистом.
Именно он, благодаря своим талантам, обводит вокруг пальца главу мафии и похищает фантастический алмаз «Спаситель России`. Стоимость найденного в Сибири драгоценного камня такова, что вся страна сможет 3 года отдыхать на Канарских островах. Его размерами потрясено мировое сообщество. Английская королева рыдает, закрывшись в спальне.
Южно — африканские шахтеры поклялись не выходить на поверхность, покане отыщут более крупный самородок… А в России сенсация следует за сенсацией! Находка века породила ограбление века! Мир, затаив дыхание, следит за стремительной сменой событий…
Источник/Качество: DVDRip
Формат: AVI
Видео кодек: XviD
Аудио кодек: MPEG Audio
Видео: 528x384 (1.38:1).25 fps.706 kbps avg
Аудио: 32 kHz.MPEG Layer 3.1 ch.46.62 kbps avg
General
Complete name : D:\ТОРЕНТNNN\Shirli.Mirli.DVDRip.avi
Format : AVI
Format/Info : Audio Video Interleave
File size : 739 MiB
Duration : 2h 15mn
Overall bit rate : 764 Kbps
Writing application : VirtualDubMod 1.5.10.2 (build 2542/release)
Writing library : VirtualDubMod build 2542/release
Video
ID : 0
Format : MPEG-4 Visual
Format profile : Advanced [email protected]
Format settings, BVOP : 2
Format settings, QPel : No
Format settings, GMC : No warppoints
Format settings, Matrix : Default (H.263)
Muxing mode : Packed bitstream
Codec ID : XVID
Codec ID/Hint : XviD
Duration : 2h 15mn
Bit rate : 707 Kbps
Width : 528 pixels
Height : 384 pixels
Display aspect ratio : 1.375
Frame rate : 25.000 fps
Color space : YUV
Chroma subsampling : 4:2:0
Bit depth : 8 bits
Scan type : Progressive
Compression mode : Lossy
Bits/(Pixel*Frame) : 0.140
Stream size : 684 MiB (93%)
Writing library : XviD 1.3.0.dev55
Audio
ID : 1
Format : MPEG Audio
Format version : Version 1
Format profile : Layer 3
Codec ID : 55
Codec ID/Hint : MP3
Duration : 2h 15mn
Bit rate mode : Variable
Bit rate : 48.0 Kbps
Channel(s) : 1 channel
Sampling rate : 32.0 KHz
Compression mode : Lossy
Stream size : 45.1 MiB (6%)
Alignment : Aligned on interleaves
Interleave, duration : 36 ms (0.90 video frame)
Interleave, preload duration : 568 ms
Writing library : LAME3.98r
Encoding settings : -m m -V 4 -q 0 -lowpass 11.3 --abr 48
Download / Скачать

Хотите скачать бесплатно? Зарегистрируйтесь на сайте (ссылка на регистрацию). Pirat.ca - самый быстрый торрент трекер в рунете!

Как скачивать  ·   Что такое торрент  ·   Рейтинг и ограничения



Последний раз редактировалось: RIIDDIK (2011-11-08 12:39), всего редактировалось 5 раз(а)

Пост 05-Ноя-2011 02:45 (спустя 1 день 7 часов)

Топик был перенесен из форума Наше Кино в форум Российские фильмы

Чужая
 

U-858

Флибустьер

Пост 28-Янв-2012 22:59 (спустя 2 месяца 25 дней)

[Q] 

ПОСМОТРИМ.
[Профиль]  [ЛС] 

abc7

Гроза морей

464

Пост 07-Фев-2012 18:40 (спустя 9 дней)

[Q] 

Старая добрая комедия...
[Профиль]  [ЛС] 

kmv01

Гроза морей

Пост 09-Май-2012 19:40 (спустя 3 месяца 2 дня)

[Q] 

Спасибо, этот фильм можно смотреть и смотреть!
[Профиль]  [ЛС] 

hohol541

Корсар

Пост 29-Дек-2012 10:11 (спустя 7 месяцев 19 дней)

[Q] 

Даже сегодня актуально.
[Профиль]  [ЛС] 

romzes85

Шкипер

Пост 28-Фев-2015 10:53 (спустя 2 года 1 месяц)

[Q] 

спасибо Всем качать!!!
[Профиль]  [ЛС] 

charlie hebdo

Штурман

Пост 11-Окт-2015 23:20 (спустя 7 месяцев 11 дней)

[Q] 

Отличный фильм, а Гаркалин- выдающийся актер!
[Профиль]  [ЛС] 

polyk

Флибустьер

Пост 18-Окт-2015 14:05 (спустя 6 дней)

[Q] 

хорошая комедия!!!!!!!!!!!
[Профиль]  [ЛС] 
Показать сообщения:    
Ответить на тему

Текущее время: Сегодня 03:51

Часовой пояс: GMT + 4



Вы не можете начинать темы
Вы не можете отвечать на сообщения
Вы не можете редактировать свои сообщения
Вы не можете удалять свои сообщения
Вы не можете голосовать в опросах
Вы не можете прикреплять файлы к сообщениям
Вы не можете скачивать файлы

▼ Вниз