ML
     
  Уважаемый Гость!
Вы можете поддержать проект и зарегистрироваться у наших партнеров - онлайн-стратегия MyLands. При регистрации в игре Вы получите код, который сможете активировать после регистрации на pirat.ca и получить 1000 дублонов.

Ваш код:
ef8b3e8cd07bec918273586d22e5aaf18e0ae925
 
     

Борис Годунов (Владимир Мирзоев) [2011 г., драма, DVDScr]

Ответить на тему
 
Автор
Сообщение

Пост 04-Ноя-2011 03:18

[Q] 

zyyx

--Борис Годунов-- Год выпуска: 2011
Производство: США
Жанр: драма
Продолжительность: 02:03:33
Перевод: Не требуется
Режиссер: Владимир Мирзоев
В ролях: Максим Суханов, Ольга Гутшмидт-Остроумова, Михаил Козаков, Андрей Мерзликин, Серафима Низовская, Валерия Приходченко, Пётр Фёдоров, Агния Дитковските, Леонид Громов, Дмитрий Певцов, Андрей Ташков, Леонид Парфёнов, Татьяна Лютаева, Валентинас Масальскис, Елена Сердюкова, Захар Хунгуреев, Сергей Макаров
Описание: Вечная наша тема — преступление и наказание. В «Борисе Годунове» проблемы совести, экзистенциального выбора увязываются с историей страны. Пушкин говорит, что эти вещи сплетены в таинственный узел или узор. Выбор каждого из нас — это еще и выбор своей истории. Неверный индивидуальный выбор или кармическая ошибка могут повлечь за собой цепочку фатальных событий. Если же человек оказывается у власти, это может стать проблемой всего народа.-Сэмпл | КиноПоиск-Источник/Качество: DVDScr
Формат: AVI
Видео кодек: XviD
Аудио кодек: AC3
Видео: 720x400 (1.80:1), 25 fps, XviD build 50, 1385 kbps avg, 0.19 bit/pixel
Аудио: 48 kHz, AC3 Dolby Digital, 2/0 (L,R) ch, 192 kbps
Общее
Полное имя : D:\pirat.ca\Борис Годунов.avi
Формат : AVI
Формат/Информация : Audio Video Interleave
Размер файла : 1,37 Гбайт
Продолжительность : 2 ч. 3 м.
Общий поток : 1588 Кбит/сек
Программа кодирования : VirtualDubMod 1.5.10.3 | www.virtualdub-fr.org || (build 2550/release)
Библиотека кодирования : VirtualDubMod build 2550/release
Видео
Идентификатор : 0
Формат : MPEG-4 Visual
Профиль формата : Advanced [email protected]
Параметр BVOP формата : 2
Параметр QPel формата : Нет
Параметр GMC формата : Без точки перехода
Параметр матрицы формата : Default (H.263)
Идентификатор кодека : XVID
Идентификатор кодека/Подсказка : XviD
Продолжительность : 2 ч. 3 м.
Битрейт : 1386 Кбит/сек
Ширина : 720 пикселей
Высота : 400 пикселей
Соотношение сторон : 16:9
Частота кадров : 25,000 кадров/сек
Цветовое пространство : YUV
Субдискретизация насыщенности : 4:2:0
Битовая глубина : 8 бит
Тип развёртки : Прогрессивная
Метод сжатия : С потерями
Бит/(Пиксели*Кадры) : 0.192
Размер потока : 1,20 Гбайт (87%)
Библиотека кодирования : XviD 1.2.1 (UTC 2008-12-04)
Аудио
Идентификатор : 1
Формат : AC-3
Формат/Информация : Audio Coding 3
Расширение режима : CM (complete main)
Идентификатор кодека : 2000
Продолжительность : 2 ч. 3 м.
Вид битрейта : Постоянный
Битрейт : 192 Кбит/сек
Каналы : 2 канала
Расположение каналов : Front: L R
Частота : 48,0 КГц
Битовая глубина : 16 бит
Метод сжатия : С потерями
Размер потока : 170 Мбайт (12%)
Выравнивание : Разделение по промежуткам
Продолжительность промежутка : 40 мс. (1,00 видеокадр)
Время предзагрузки промежутка : 500 мс.


Download / Скачать

Хотите скачать бесплатно? Зарегистрируйтесь на сайте (ссылка на регистрацию). Pirat.ca - самый быстрый торрент трекер в рунете!

Как скачивать  ·   Что такое торрент  ·   Рейтинг и ограничения



Последний раз редактировалось: zyyx (2011-11-06 19:34), всего редактировалось 1 раз

Пост 04-Ноя-2011 10:35 (спустя 7 часов)

Топик был перенесен из форума Наше Кино в форум Российские фильмы

Skinwalker
 

Volodko

Корсар

Пост 30-Сен-2012 22:32 (спустя 10 месяцев 26 дней)

[Q] 

[Профиль]  [ЛС] 

AlexShulman

Лоцман

Пост 31-Май-2013 15:44 (спустя 8 месяцев)

[Q] 

[Профиль]  [ЛС] 
Показать сообщения:    
Ответить на тему

Текущее время: Сегодня 18:37

Часовой пояс: GMT + 4



Вы не можете начинать темы
Вы не можете отвечать на сообщения
Вы не можете редактировать свои сообщения
Вы не можете удалять свои сообщения
Вы не можете голосовать в опросах
Вы не можете прикреплять файлы к сообщениям
Вы не можете скачивать файлы

▼ Вниз