ML
     
  Уважаемый Гость!
Вы можете поддержать проект и зарегистрироваться у наших партнеров - онлайн-стратегия MyLands. При регистрации в игре Вы получите код, который сможете активировать после регистрации на pirat.ca и получить 1000 дублонов.

Ваш код:
93dbf9fbdfa06c41d3b5a2c3921149ba36168c41
 
     

Одиссея капитана Блада. (Андрей Праченко) [1991г., приключения, DVDRip]

Ответить на тему
 
Автор
Сообщение

Пост 04-Ноя-2011 21:51

[Q] 

K-0-t

Морской Волк

Одиссея капитана Блада
Год выпуска: 1991
Страна: СССР — Франция
Жанр: Приключения
Продолжительность: 02:16:08
Режиссер: Андрей Праченко
Автор сценария: Наталья Курчанина
В ролях:
Ив Ламбрешт (фр. Yves Lambrecht) — Питер Блад
Валери Жанне (фр. Valérie Jeannet) — Арабелла Бишоп
Леонид Ярмольник — Левасер
Александр Пашутин — полковник Бишоп
Альберт Филозов — эпизод
Игорь Слободской — эпизод
Расми Джабраилов — канонир Нед Огл
Сергей Подгорный — эпизод
Виктор Демерташ — эпизод
Георгий Дворников — эпизод
Ремезов Павел — Волверстон
Миндаугас Цапас — Джереми Питт
Николай Гудзь — эпизод
Описание:
XVII век. Английский врач по имени Питер Блад, случайно оказавшийся среди бунтовщиков, был сослан на остров Барбадос на каторжные работы. Спустя некоторое время ему и его товарищам по несчастью удаётся бежать, захватив испанский фрегат. Волею обстоятельств капитан Блад и его матросы вынуждены заняться пиратством. Через некоторое время капитан Блад и его команда становятся самыми известным пиратами в регионе. На них объявляется настоящая охота, однако удача каждый раз оказывается на стороне благородного разбойника…
Интересные факты:
Свою натуру съёмочная группа фильма "Одиссея капитана Блада" актёры Ив Ламбрешт и Валери Жанне предоставили для съёмки клипа Валерия Леонтьева "Санта-Мария"
Источник/Качество: DVDRip
Формат: AVI
Видео кодек: DivX
Аудио кодек: AC3
Видео: 608x464 (1.31:1), 25 fps, DivX He-3 (TwinTurbocharger), 1661 kbps avg, 0.23 bit/pixel
Аудио: 48 kHz, AC3 Dolby Digital, 3/2 (L,C,R,l,r) + LFE ch, 384 kbps
General
Complete name : E:\Фильмы\Художественные\Отечественные фильмы\Одиссея капитана Блада (Ялта-фильм - Фр-3 1991г.).avi
Format : AVI
Format/Info : Audio Video Interleave
File size : 1.95 GiB
Duration : 2h 16mn
Overall bit rate : 2 055 Kbps
Movie name : Одиссея капитана Блада (1991) 1 серия
Director : EFIM
Genre : Adventure
Writing application : VirtualDubMod 1.5.10.1 (build 2366/release)
Writing library : VirtualDubMod build 2366/release
Original source form/Name : Movie
Copyright : © 2005
Comment : http://www.imdb.com/title/tt0186412/
Video
ID : 0
Format : MPEG-4 Visual
Format settings, BVOP : Yes
Format settings, QPel : No
Format settings, GMC : No warppoints
Format settings, Matrix : Default (H.263)
Codec ID : DX50
Codec ID/Hint : DivX 5
Duration : 2h 16mn
Bit rate : 1 662 Kbps
Width : 608 pixels
Height : 464 pixels
Display aspect ratio : 4:3
Frame rate : 25.000 fps
Resolution : 24 bits
Colorimetry : 4:2:0
Scan type : Progressive
Bits/(Pixel*Frame) : 0.236
Stream size : 1.58 GiB (81%)
Writing library : DivX He-3 (TwinTurbocharger) (UTC 2005-12)
Audio
ID : 1
Format : AC-3
Format/Info : Audio Coding 3
Codec ID : 2000
Duration : 2h 16mn
Bit rate mode : Constant
Bit rate : 384 Kbps
Channel(s) : 6 channels
Channel positions : Front: L C R, Surround: L R, LFE
Sampling rate : 48.0 KHz
Stream size : 374 MiB (19%)
Alignment : Split accross interleaves
Interleave, duration : 40 ms (1.00 video frame)
Interleave, preload duration : 500 ms
Download / Скачать

Хотите скачать бесплатно? Зарегистрируйтесь на сайте (ссылка на регистрацию). Pirat.ca - самый быстрый торрент трекер в рунете!

Как скачивать  ·   Что такое торрент  ·   Рейтинг и ограничения



Последний раз редактировалось: K-0-t (2011-11-06 23:57), всего редактировалось 4 раз(а)

Пост 05-Ноя-2011 02:46 (спустя 4 часа)

Топик был перенесен из форума Наше Кино в форум Российские фильмы

Чужая
 

Vitos

Шкипер

Пост 07-Ноя-2011 11:04 (спустя 2 дня 13 часов)

[Q] 

Благодарю за раздачу!
[Профиль]  [ЛС] 

XAPOH

Гроза морей

Пост 14-Ноя-2011 00:26 (спустя 6 дней)

[Q] 

Спасибо!!

_________________

<<<Dolus an virtus quis in hoste requirat?>>>
Intel Core i7 2600, 16Gb Ram, GTX 670, SSD.
PS4.
[Профиль]  [ЛС] 

UncleFather

Легенда

Пост 23-Мар-2013 16:22 (спустя 1 год 4 месяца)

[Q] 


_________________
Одни боялись Пью, другие - Билли Бонса, а меня... меня боялся сам Флинт
[Профиль]  [ЛС] 
Показать сообщения:    
Ответить на тему

Текущее время: Сегодня 20:17

Часовой пояс: GMT + 4



Вы не можете начинать темы
Вы не можете отвечать на сообщения
Вы не можете редактировать свои сообщения
Вы не можете удалять свои сообщения
Вы не можете голосовать в опросах
Вы не можете прикреплять файлы к сообщениям
Вы не можете скачивать файлы

▼ Вниз