ML
     
  Уважаемый Гость!
Вы можете поддержать проект и зарегистрироваться у наших партнеров - онлайн-стратегия MyLands. При регистрации в игре Вы получите код, который сможете активировать после регистрации на pirat.ca и получить 1000 дублонов.

Ваш код:
2fd4e750dd89cae3a36ea360f2b345ccfeb562d3
 
     

Служебный роман. Наше время (Сарик Андреасян) [2011 г., мелодрама, комедия, DVD5 (сжатый)]

Ответить на тему
 
Автор
Сообщение

Пост 05-Ноя-2011 00:06

[Q] 

dj-shoom

Штурман

Служебный роман. Наше время
Год выпуска: 2011
Жанр: мелодрама, комедия
Режиссер: Сарик Андреасян
В ролях: Светлана Ходченкова, Владимир Зеленский, Марат Башаров, Анастасия Заворотнюк, Павел Воля, Дмитрий Хрусталев, Тимур Родригез, Тигран Кеосаян, Алика Смехова, Иван Охлобыстин
Описание: Наши дни. Людмила Калугина — акула бизнеса, хозяйка рейтингового агентства. Анатолий Новосельцев — финансовый аналитик, фанатичный байкер и отец двоих детей. И жить бы им: ей — в борьбе с конкурентами, ему офисным планктоном, если бы не служебный роман…
Доп. информация: Устранён рассинхрон и совместим с "железными" плеерами
Источник/Качество: DVDRip
Формат: AVI
Видео кодек: XviD
Аудио кодек: AC3
Видео: 720x320 (2.25:1), 25 fps, XviD build 50 ~1782 kbps avg, 0.31 bit/pixel
Аудио: 48 kHz, AC3 Dolby Digital, 3/2 (L,C,R,l,r) + LFE ch, ~448 kbps
AVIInfo:File: Sluzhebnyj.roman.Nashe.vremja.2011.O.DVDRip.avi
Filesize: 1399.99 Mb ( 1 467 996 160 bytes )
Play length: 01:27:21.959 (131049 frames)
Subtitles: Not Present
Video: 720x320 (2.25:1), 25 fps, XviD build 50 ~1782 kbps avg, 0.31 bit/pixel
Audio: 48 kHz, AC3 Dolby Digital, 3/2 (L,C,R,l,r) + LFE ch, ~448 kbps
Общее
Полное имя : H:\Торрент\итог\Sluzhebnyj.roman.Nashe.vremja.2011.O.DVDRip.avi
Формат : AVI
Формат/Информация : Audio Video Interleave
Размер файла : 1,37 Гбайт
Продолжительность : 1 ч. 27 м.
Общий поток : 2240 Кбит/сек
Программа кодирования : VirtualDubMod 1.5.10.2 (build 2540/release)
Библиотека кодирования : VirtualDubMod build 2540/release
Видео
Идентификатор : 0
Формат : MPEG-4 Visual
Профиль формата : Advanced [email protected]
Параметр BVOP формата : 2
Параметр QPel формата : Нет
Параметр GMC формата : Без точки перехода
Параметр матрицы формата : Default (MPEG)
Идентификатор кодека : XVID
Идентификатор кодека/Подсказка : XviD
Продолжительность : 1 ч. 27 м.
Битрейт : 1783 Кбит/сек
Ширина : 720 пикс.
Высота : 320 пикс.
Соотношение сторон : 2,25:1
Частота кадров : 25,000 кадр/сек
Цветовое пространство : YUV
Подвыборка цветности : 4:2:0
Битовая глубина : 8 бит
Тип развёртки : Прогрессивная
Метод сжатия : С потерями
Бит/(Пиксели*Кадры) : 0.309
Размер потока : 1,09 Гбайт (80%)
Библиотека кодирования : XviD 1.2.1 (UTC 2008-12-04)
Аудио
Идентификатор : 1
Формат : AC-3
Формат/Информация : Audio Coding 3
Расширение режима : CM (complete main)
Идентификатор кодека : 2000
Продолжительность : 1 ч. 27 м.
Вид битрейта : Постоянный
Битрейт : 448 Кбит/сек
Канал(ы) : 6 канала(ов)
Расположение каналов : Front: L C R, Side: L R, LFE
Частота : 48,0 КГц
Битовая глубина : 16 бит
Метод сжатия : С потерями
Размер потока : 280 Мбайт (20%)
Выравнивание : Разделение по промежуткам
Продолжительность промежутка : 40 мс. (1,00 видеокадр)
Время предзагрузки промежутка : 500 ms







Download / Скачать

Хотите скачать бесплатно? Зарегистрируйтесь на сайте (ссылка на регистрацию). Pirat.ca - самый быстрый торрент трекер в рунете!

Как скачивать  ·   Что такое торрент  ·   Рейтинг и ограничения



Последний раз редактировалось: dj-shoom (2011-11-07 21:22), всего редактировалось 4 раз(а)

Пост 08-Ноя-2011 05:42 (спустя 3 дня)

Топик был перенесен из форума Наше Кино в форум Российские фильмы

Чужая
 

juretsz

Лоцман

Пост 01-Дек-2011 11:36 (спустя 26 дней)

[Q] 

спасибо!!!!
[Профиль]  [ЛС] 

VOVAN LV

Лоцман

Пост 08-Янв-2012 22:44 (спустя 1 месяц 7 дней)

[Q] 

Спасибо!
[Профиль]  [ЛС] 

windj

Корсар

73

Пост 17-Янв-2012 17:54 (спустя 8 дней)

[Q] 

На что надеялся режиссёр, снимая ремейк? Надо было дождаться пока передохнут те кто премьеру старого фильма смотрел.

_________________
[Профиль]  [ЛС] 

KIRST

Корсар

Пост 20-Янв-2012 20:49 (спустя 3 дня)

[Q] 

Хороший фильм,спасибо.
[Профиль]  [ЛС] 

evgen446

Штурман

Пост 11-Фев-2012 19:44 (спустя 21 день)

[Q] 

Да ничё так получилось. )))
[Профиль]  [ЛС] 

^_^ Шеля ^_^

Шкипер

Пост 12-Фев-2012 12:41 (спустя 16 часов)

[Q] 

Спасибо, хороший фильм
[Профиль]  [ЛС] 

Nightwalker

Гроза морей

Пост 07-Окт-2012 22:13 (спустя 7 месяцев 24 дня)

[Q] 

Большое спасибо!

_________________
Хотя и сладостен азарт, по сразу двум идти дорогам, нельзя одной колодой карт, играть и с Дьяволом и Богом.
[Профиль]  [ЛС] 

naumov1312

Штурман

Пост 13-Окт-2013 20:00 (спустя 1 год)

[Q] 

Спасибо скачиваю!!! dn
[Профиль]  [ЛС] 
Показать сообщения:    
Ответить на тему

Текущее время: Сегодня 14:13

Часовой пояс: GMT + 4



Вы не можете начинать темы
Вы не можете отвечать на сообщения
Вы не можете редактировать свои сообщения
Вы не можете удалять свои сообщения
Вы не можете голосовать в опросах
Вы не можете прикреплять файлы к сообщениям
Вы не можете скачивать файлы

▼ Вниз