ML
     
  Уважаемый Гость!
Вы можете поддержать проект и зарегистрироваться у наших партнеров - онлайн-стратегия MyLands. При регистрации в игре Вы получите код, который сможете активировать после регистрации на pirat.ca и получить 1000 дублонов.

Ваш код:
4399ab8611ee7f8a22949d2ee7634160dd2db7e0
 
     

Слушатель (Владимир Зайкин) [2004 г., Комедия, Мелодрама, DVDRip]

Ответить на тему
 
Автор
Сообщение

Пост 05-Ноя-2011 10:54

[Q] 

oldzren

Шкипер

Слушатель
Год выпуска: 2004
Жанр: Комедия, Мелодрама
Продолжительность: 01:32:12
Режиссер: Владимир Зайкин
В ролях: Никита Высоцкий, Михаил Ефремов, Евгений Стеблов, Наталья Коляканова, Любовь Толкалина, Дмитрий Дюжев, Александра Буданова, Николай Малаев, Геннадий Храпунков, Иван Агапов.
Описание: Жизнь 32-летнего президента преуспевающей фирмы Сергея Петрова рушится в одночасье. Он теряет все — деньги, социальное положение, дом, семью, работу и оказывается на улице. Однажды, скитаясь по городу, герой встречает своего бывшего однокурсника, а ныне мелкого жулика Кулему. Вместе с ним Петров приходит в бюро по трудоустройству, где ему предлагают работу… «Слушателя». Так он попадает в семью Федуловых, где и начинает «работать» - выслушивать брань и оскорбления всех обитателей дома, не рискующих открыто высказываться друг перед другом. Вскоре в доме появляется старшая дочь Федуловых — Марина, сбежавшая от подлеца-мужа. Стычки Петрова с Мариной незаметно перерастают в нечто иное… И когда беды и неприятности героев доходят до предела, когда все буквально подходят к грани отчаяния, как это всегда и бывает в новогоднюю ночь, свершается чудо… Открываются неожиданные факты, которые круто меняют ход событий и дарят героям долгожданное счастье!
Источник/Качество: DVDRip
Формат: AVI
Видео кодек: DivX
Аудио кодек: AC3
Видео: 640x352 (1.82:1), 23.976 fps, DivX Pro™ Fusion Codec 5.9 (HiggsBoson), 1984 kbps avg, 0.37 bit/pixel
Аудио: 48 kHz, AC3 Dolby Digital, 3/2 (L,C,R,l,r) + LFE ch, 224.00 kbps avg, 0:53:47.366
General
Format : AVI
Format/Info : Audio Video Interleave
File size : 1.37 GiB
Duration : 1h 32mn
Overall bit rate : 2 122 Kbps
Movie name : Слушатель, 2004
Director : RDA Team
Genre : Comedy
Writing application : VirtualDubMod 1.5.10.1 (build 2366/release)
Original source form/Name : Movie
Copyright : © 2005
Comment : http://www.videoguide.ru/card_relis.asp?id_relis=8362
Video
ID : 0
Format : MPEG-4 Visual
Format settings, BVOP : 1
Format settings, QPel : No
Format settings, GMC : No warppoints
Format settings, Matrix : Default (H.263)
Muxing mode : Packed bitstream
Codec ID : DX50
Codec ID/Hint : DivX 5
Duration : 1h 32mn
Bit rate : 1 891 Kbps
Width : 640 pixels
Height : 352 pixels
Display aspect ratio : 16:9
Frame rate : 23.976 fps
Color space : YUV
Chroma subsampling : 4:2:0
Bit depth : 8 bits
Scan type : Progressive
Compression mode : Lossy
Bits/(Pixel*Frame) : 0.350
Stream size : 1.22 GiB (89%)
Writing library : DivX 5.9.0 Fusion (HiggsBoson) (UTC 2005-03-05)
Audio
ID : 1
Format : AC-3
Format/Info : Audio Coding 3
Mode extension : CM (complete main)
Codec ID : 2000
Duration : 1h 32mn
Bit rate mode : Constant
Bit rate : 224 Kbps
Channel(s) : 6 channels
Channel positions : Front: L C R, Side: L R, LFE
Sampling rate : 48.0 KHz
Bit depth : 16 bits
Compression mode : Lossy
Delay relative to video : 212ms
Stream size : 148 MiB (11%)
Alignment : Split accross interleaves
Interleave, duration : 64 ms (1.53 video frames)
Interleave, preload duration : 64 ms









Download / Скачать

Хотите скачать бесплатно? Зарегистрируйтесь на сайте (ссылка на регистрацию). Pirat.ca - самый быстрый торрент трекер в рунете!

Как скачивать  ·   Что такое торрент  ·   Рейтинг и ограничения



Последний раз редактировалось: oldzren (2012-12-15 10:38), всего редактировалось 5 раз(а)

Пост 05-Ноя-2011 13:42 (спустя 2 часа 47 минут)

Топик был перенесен из форума Наше Кино в форум Российские фильмы

Skinwalker
 

Luzhok

Легенда

Пост 05-Ноя-2011 16:32 (спустя 5 часов)

[Q] 

помогаю с раздачей
oldzren,
спасибо
[Профиль]  [ЛС] 

ws2

Лоцман

Пост 06-Ноя-2011 19:13 (спустя 1 день 2 часа)

[Q] 

Ошибка
Выделенных вложений больше не существует.
files/GNMEOp_slushatel[pirat.ca].avi.torrent
Файл отсутствует на сервере!
[Профиль]  [ЛС] 

oldzren ®

Шкипер

184

Пост 07-Ноя-2011 06:41 (спустя 11 часов)

[Q] 

Перезалил торрент, обновите! Раздаю с двух хостов.

_________________
[Профиль]  [ЛС] 

Luzhok

Легенда

Пост 07-Ноя-2011 20:23 (спустя 13 часов)

[Q] 

oldzren, с этим всё в порядке, раздаётся
[Профиль]  [ЛС] 

Izvozcik

Лоцман

Пост 04-Дек-2011 14:37 (спустя 26 дней)

[Q] 

Хороший фильм.
[Профиль]  [ЛС] 

UncleFather

Легенда

Пост 23-Мар-2013 16:41 (спустя 1 год 3 месяца)

[Q] 


_________________
Одни боялись Пью, другие - Билли Бонса, а меня... меня боялся сам Флинт
[Профиль]  [ЛС] 
Показать сообщения:    
Ответить на тему

Текущее время: Сегодня 10:46

Часовой пояс: GMT + 4



Вы не можете начинать темы
Вы не можете отвечать на сообщения
Вы не можете редактировать свои сообщения
Вы не можете удалять свои сообщения
Вы не можете голосовать в опросах
Вы не можете прикреплять файлы к сообщениям
Вы не можете скачивать файлы

▼ Вниз