ML
     
  Уважаемый Гость!
Вы можете поддержать проект и зарегистрироваться у наших партнеров - онлайн-стратегия MyLands. При регистрации в игре Вы получите код, который сможете активировать после регистрации на pirat.ca и получить 1000 дублонов.

Ваш код:
74c28610d77aaac24ba694c4128f3b9b46b04220
 
     

Колхоз Интертейнмент (Максим Воронков) [2003 г., Комедия, DVDRip]

Ответить на тему
 
Автор
Сообщение

Пост 05-Ноя-2011 14:00

[Q] 

oldzren

Шкипер

Колхоз Интертейнмент
Год выпуска: 2003
Жанр: Комедия
Продолжительность: 01:43:33
Режиссер: Максим Воронков
В ролях: Николай Караченцов, Армен Джигарханян, Илья Олейников, Андрей Федорцов, Татьяна Кравченко, Станислав Садальский, Александр Семчев
Описание: 1989 год, разгар перестройки. Колхоз-миллионер "Красный бунтарь", из года в год перевыполняющий планы по надоям и зерну, наотрез отказывается тратить деньги на культурные мероприятия. За это безобразие секретарь райкома партии собирается лишить колхозников их законной премии, но дает селянам последний шанс - в течение месяца либо драмкружок организовать, либо кино снять, но только такое, чтобы утереть нос всяким разным Голливудам. И началось!..
Источник/Качество: DVDRip
Формат: AVI
Видео кодек: DivX
Аудио кодек: AC3
Видео: 720x432 (1.67:1), 25 fps, DivX Codec 5.1.1 ~1714 kbps avg, 0.22 bit/pixel
Аудио: 48 kHz, AC3 Dolby Digital, 2/0 (L,R) ch, ~256.00 kbps avg
General
Format : AVI
Format/Info : Audio Video Interleave
File size : 1.37 GiB
Duration : 1h 43mn
Overall bit rate : 1 892 Kbps
Writing application : VirtualDubMod 1.5.4.1 (build 2178/release)
Writing library : VirtualDubMod build 2178/release
Video
ID : 0
Format : MPEG-4 Visual
Format settings, BVOP : No
Format settings, QPel : No
Format settings, GMC : No warppoints
Format settings, Matrix : Default (H.263)
Codec ID : DX50
Codec ID/Hint : DivX 5
Duration : 1h 43mn
Bit rate : 1 629 Kbps
Width : 720 pixels
Height : 432 pixels
Display aspect ratio : 1.667
Frame rate : 25.000 fps
Color space : YUV
Chroma subsampling : 4:2:0
Bit depth : 8 bits
Scan type : Progressive
Compression mode : Lossy
Bits/(Pixel*Frame) : 0.209
Stream size : 1.18 GiB (86%)
Writing library : DivX 5.1.1 (Maupiti) (UTC 2003-11-19)
Audio
ID : 1
Format : AC-3
Format/Info : Audio Coding 3
Mode extension : CM (complete main)
Codec ID : 2000
Duration : 1h 43mn
Bit rate mode : Constant
Bit rate : 256 Kbps
Channel(s) : 2 channels
Channel positions : Front: L R
Sampling rate : 48.0 KHz
Bit depth : 16 bits
Compression mode : Lossy
Stream size : 190 MiB (14%)
Alignment : Split accross interleaves
Interleave, duration : 96 ms (2.40 video frames)
Interleave, preload duration : 96 ms
Language : Russian









Download / Скачать

Хотите скачать бесплатно? Зарегистрируйтесь на сайте (ссылка на регистрацию). Pirat.ca - самый быстрый торрент трекер в рунете!

Как скачивать  ·   Что такое торрент  ·   Рейтинг и ограничения



Последний раз редактировалось: oldzren (2012-12-15 10:39), всего редактировалось 3 раз(а)

Luzhok

Легенда

Пост 05-Ноя-2011 16:51 (спустя 2 часа 51 минута)

[Q] 

присоединился
oldzren,
спасибо
[Профиль]  [ЛС] 

Пост 05-Ноя-2011 18:54 (спустя 2 часа 3 минуты)

Топик был перенесен из форума Наше Кино в форум Российские фильмы

Skinwalker
 

vit70

Лоцман

Пост 06-Ноя-2011 11:29 (спустя 18 часов)

[Q] 

Поддерживаю.
[Профиль]  [ЛС] 

oldzren ®

Шкипер

184

Пост 07-Ноя-2011 12:28 (спустя 1 день)

[Q] 

Перезалил торрент, пожалуйста, обновите!

_________________
[Профиль]  [ЛС] 

Luzhok

Легенда

Пост 07-Ноя-2011 12:50 (спустя 21 минута)

[Q] 

oldzren,
файл поменялся, что ли?
объём тот же, перехеширование показывает несколько мелких различий, совпадение 99,4%
я эту авишку смотрел, дефектов вроде не было
не понятно
[Профиль]  [ЛС] 

oldzren ®

Шкипер

184

Пост 07-Ноя-2011 13:06 (спустя 16 минут)

[Q] 

Торрент-файл восстановлен. Раздававшим просьба скачать его заново.

_________________
[Профиль]  [ЛС] 

Luzhok

Легенда

Пост 07-Ноя-2011 20:27 (спустя 7 часов)

[Q] 

oldzren,
возвращаясь к разговору
теперь всё замечательно, видно правда был у тебя баг при переносе
[Профиль]  [ЛС] 

oldzren ®

Шкипер

184

Пост 07-Ноя-2011 21:34 (спустя 1 час 6 минут)

[Q] 

Время такое... Баговое:)) Трекеры падают, что уж про меня говорить:)

_________________
[Профиль]  [ЛС] 

CHARLI2236

1096

Пост 26-Ноя-2011 18:11 (спустя 18 дней)

[Q] 

спасибо

_________________
[Профиль]  [ЛС] 

руслан6677

Лоцман

Пост 29-Авг-2012 18:56 (спустя 9 месяцев 3 дня)

[Q] 

[Профиль]  [ЛС] 
Показать сообщения:    
Ответить на тему

Текущее время: Сегодня 09:59

Часовой пояс: GMT + 4



Вы не можете начинать темы
Вы не можете отвечать на сообщения
Вы не можете редактировать свои сообщения
Вы не можете удалять свои сообщения
Вы не можете голосовать в опросах
Вы не можете прикреплять файлы к сообщениям
Вы не можете скачивать файлы

▼ Вниз