ML
     
  Уважаемый Гость!
Вы можете поддержать проект и зарегистрироваться у наших партнеров - онлайн-стратегия MyLands. При регистрации в игре Вы получите код, который сможете активировать после регистрации на pirat.ca и получить 1000 дублонов.

Ваш код:
062e2babcc491faeb40d496cf9a498ac3df6cdd0
 
     

Вдребезги (Роман Каримов) [2011 г., комедия, DVDRip]

Ответить на тему
 
Автор
Сообщение

Пост 05-Ноя-2011 17:46

[Q] 

zyyx

--Вдребезги
«Судьба расставит все точки над Ё»
-- Год выпуска: 2011
Российская премьера: 6 октября 2011, «Парадиз»
Дата выхода DVD: 8 ноября 2011, «Парадиз Видео»
Производство: Россия
Жанр: комедия
Продолжительность: 01:29:15
Перевод: Не требуется [Лицензия]
Режиссер: Роман Каримов
В ролях: Никита Дювбанов, Артем Ткаченко, Равшана Куркова, Иван Николаев, Александр Плющев, Александр Дульщиков, Кристина Казурова, Евгения Абрамова, Павел Дикан, Тимур Крючков...
Описание: Что делать с людьми, которые нам так мешают в нашей жизни? Может их убить? А можем ли мы убить? А кто может убить?
…Две девушки-маньячки сбивают велосипедиста, убивают педофила, угоняют машину у гламурного подонка…
…Известный ди-джей ведет скандальное шоу, где прикалывается над слушателями. После очередного эфира ди-джея похищают…
… Жена, мечтающая порвать с мужем, приглашает на день рождения босса-любовника. Пока она ходила за сигаретами, в доме происходит убийство… Пути героев этих историй, составляющих абсурдно-жестокую черную комедию, пересекаются на загородном шоссе, когда судьба сама расставляет все точки над Ё…-Сэмпл | КиноПоиск-Источник/Качество: DVDRip
Формат: AVI
Видео кодек: XviD
Аудио кодек: MP3
Видео: 640x272 (2.35:1), 25 fps, XviD MPEG-4 ~958 kbps avg, 0.22 bit/pixel
Аудио: 48 kHz, MPEG Layer 3, 2 ch, ~128.00 kbps avg
Общее
Полное имя : D:\pirat.ca\Вдребезги.avi
Формат : AVI
Формат/Информация : Audio Video Interleave
Размер файла : 700 Мбайт
Продолжительность : 1 ч. 29 м.
Общий поток : 1096 Кбит/сек
Программа кодирования : VirtualDubMod 1.5.10.2 (build 2542/release)
Библиотека кодирования : VirtualDub build 32507/release
Видео
Идентификатор : 0
Формат : MPEG-4 Visual
Профиль формата : Advanced [email protected]
Параметр BVOP формата : 1
Параметр QPel формата : Нет
Параметр GMC формата : Без точки перехода
Параметр матрицы формата : Default (H.263)
Режим смешивания : Сжатый битовый поток
Идентификатор кодека : XVID
Идентификатор кодека/Подсказка : XviD
Продолжительность : 1 ч. 29 м.
Битрейт : 959 Кбит/сек
Ширина : 640 пикселей
Высота : 272 пикселя
Соотношение сторон : 2,35:1
Частота кадров : 25,000 кадров/сек
Цветовое пространство : YUV
Субдискретизация насыщенности : 4:2:0
Битовая глубина : 8 бит
Тип развёртки : Прогрессивная
Метод сжатия : С потерями
Бит/(Пиксели*Кадры) : 0.220
Размер потока : 612 Мбайт (87%)
Библиотека кодирования : XviD 62
Аудио
Идентификатор : 1
Формат : MPEG Audio
Версия формата : Version 1
Профиль формата : Layer 3
Режим : Joint stereo
Расширение режима : MS Stereo
Идентификатор кодека : 55
Идентификатор кодека/Подсказка : MP3
Продолжительность : 1 ч. 29 м.
Вид битрейта : Постоянный
Битрейт : 128 Кбит/сек
Каналы : 2 канала
Частота : 48,0 КГц
Метод сжатия : С потерями
Размер потока : 81,7 Мбайт (12%)
Выравнивание : Соединение по промежуткам
Продолжительность промежутка : 40 мс. (1,00 видеокадр)
Время предзагрузки промежутка : 504 мс.
Библиотека кодирования : LAME3.98r
Настройки программы : -m j -V 4 -q 2 -lowpass 17 -b 128-m j -V 4 -q 2 -lowpass 17 -b 128-m j -V 4 -q 2 -lowpass 17 -b 128


Download / Скачать

Хотите скачать бесплатно? Зарегистрируйтесь на сайте (ссылка на регистрацию). Pirat.ca - самый быстрый торрент трекер в рунете!

Как скачивать  ·   Что такое торрент  ·   Рейтинг и ограничения



Последний раз редактировалось: zyyx (2011-11-06 19:53), всего редактировалось 2 раз(а)

nopH0

Лоцман

Пост 08-Ноя-2011 09:31 (спустя 2 дня 15 часов)

[Q] 

Спасибо, очень хотел посмотреть!
[Профиль]  [ЛС] 

Luzhok

Легенда

Пост 08-Ноя-2011 21:15 (спустя 11 часов)

[Q] 

zyyx,
спасибо!
[Профиль]  [ЛС] 

Ферзь

Корсар

Пост 09-Ноя-2011 07:49 (спустя 10 часов)

[Q] 

zyyx Большое СПАСИБО! bq

_________________
[Профиль]  [ЛС] 

NPCWAGON

Лоцман

Пост 09-Ноя-2011 18:13 (спустя 10 часов)

[Q] 

Не хвалят фильм, но посмотрю.
[Профиль]  [ЛС] 

Sukre208

Шкипер

Пост 12-Ноя-2011 09:34 (спустя 2 дня 15 часов)

[Q] 

Из уважения к режиссёру, если кто и способен нормальное кино в России снимать, то это пока только Каримов и Буслов.

_________________
--аминь
[Профиль]  [ЛС] 

Пост 16-Ноя-2011 12:11 (спустя 4 дня)

Топик был перенесен из форума Mysor.ca в форум Новинки (HD|DVD|BD|TV|SAT|PDTV| - Rips)

Чужая
 

Барсик

Морской Волк

11

Пост 25-Ноя-2011 21:04 (спустя 13 дней)

[Q] 

Супер бред.Даже не просто супер бред а бредятина на все 500 % . местами прикольно. Спасибо за кино.
[Профиль]  [ЛС] 

Пост 08-Дек-2011 13:58 (спустя 12 дней)

Топик был перенесен из форума Новинки (HD|DVD|BD|TV|SAT|PDTV| - Rips) в форум Российские фильмы

oliks
 

balorhaos

Лоцман

Пост 21-Дек-2011 22:09 (спустя 26 дней)

[Q] 

Cюжет содран со старого фильма 11:14, но прикольно
[Профиль]  [ЛС] 

Kibersanya

Корсар

Пост 19-Янв-2013 12:52 (спустя 1 год)

[Q] 

[Профиль]  [ЛС] 

UncleFather

Легенда

Пост 23-Мар-2013 16:07 (спустя 2 месяца 4 дня)

[Q] 


_________________
Одни боялись Пью, другие - Билли Бонса, а меня... меня боялся сам Флинт
[Профиль]  [ЛС] 

Nemetz

Корсар

Пост 11-Апр-2013 06:40 (спустя 18 дней)

[Q] 

Закос под Тарантино какой то.. Бред.
[Профиль]  [ЛС] 
Показать сообщения:    
Ответить на тему

Текущее время: Сегодня 17:37

Часовой пояс: GMT + 4



Вы не можете начинать темы
Вы не можете отвечать на сообщения
Вы не можете редактировать свои сообщения
Вы не можете удалять свои сообщения
Вы не можете голосовать в опросах
Вы не можете прикреплять файлы к сообщениям
Вы не можете скачивать файлы

▼ Вниз