ML
     
  Уважаемый Гость!
Вы можете поддержать проект и зарегистрироваться у наших партнеров - онлайн-стратегия MyLands. При регистрации в игре Вы получите код, который сможете активировать после регистрации на pirat.ca и получить 1000 дублонов.

Ваш код:
59354507ba913a0948d1a8f2e30f2e04c4cd7b9b
 
     

Пирамммида (Эльдар Салаватов) [2011 г., боевик, триллер, драма, криминал, биография]

Ответить на тему
 
Автор
Сообщение

Пост 05-Ноя-2011 20:39

[Q] 

oldzren

Шкипер

ПирамМмида
Год выпуска: 2011
Жанр: боевик, триллер, драма, криминал, биография
Продолжительность: 01:45:15
Режиссер: Эльдар Салаватов
В ролях: Алексей Серебряков, Даниил Спиваковский, Екатерина Вилкова, Юрий Цурило, Алексей Горбунов, Артем Михалков, Петр Федоров, Федор Бондарчук, Анна Михалкова, Никита Салопин, Игорь Яцко, Николай Ковбас, Владимир Пермяков и др.
Описание: Россия, начало 90-х. Страна в процессе болезненного перехода от социализма к капитализму и рыночным отношениям. Простые люди, привыкшие за последние годы к стабильности, растеряны и перепуганы. Все пришло в движение, ход истории разворачивается на глазах. Поворотные моменты истории всегда рождают десятки всевозможных самозванцев и талантливых мошенников. Сергей Мамонтов ищет как применить себя и свой интеллект. И находит. Мамонтов заказывает макет «ценной бумаги» с имперской вязью, богатым орнаментом, водяными знаками и собственным портретом в самом центре. И начинает продавать свои "деньги" по принципу: сегодня всегда дороже, чем вчера. Развернулась активная рекламная кампания. Каких-то пол месяца оказалось достаточно, чтобы народ уже выстроился в очереди за «мамонтовками», а Мамонтов стал едва ли не национальным героем. И могущественные банкиры, и властные структуры в растерянности — никто не имеет понятия, как прекратить этот беспредел — а в МММ уже "засосало" больше 10 миллионов вкладчиков… Заговоры, похищения людей, погони, заказные убийства. И немного любви...
Источник/Качество: DVDRip
Формат: AVI
Видео кодек: XviD
Аудио кодек: AC3
Видео: 720x304 (2.37:1), 25 fps, XviD build 50 ~1452 kbps avg, 0.27 bit/pixel
Аудио: 48 kHz, AC3 Dolby Digital, 3/2 (L,C,R,l,r) + LFE ch, ~448.00 kbps avg
General
Format : AVI
Format/Info : Audio Video Interleave
File size : 1.46 GiB
Duration : 1h 45mn
Overall bit rate : 1 985 Kbps
Writing application : VirtualDubMod 1.5.10.3 | www.virtualdub-fr.org || (build 2550/release)
Writing library : VirtualDubMod build 2550/release
Video
ID : 0
Format : MPEG-4 Visual
Format profile : Advanced [email protected]
Format settings, BVOP : 3
Format settings, QPel : Yes
Format settings, GMC : 3 warppoints
Format settings, Matrix : Default (H.263)
Codec ID : XVID
Codec ID/Hint : XviD
Duration : 1h 45mn
Bit rate : 1 527 Kbps
Width : 720 pixels
Height : 304 pixels
Display aspect ratio : 2.35:1
Frame rate : 25.000 fps
Color space : YUV
Chroma subsampling : 4:2:0
Bit depth : 8 bits
Scan type : Progressive
Compression mode : Lossy
Bits/(Pixel*Frame) : 0.279
Stream size : 1.12 GiB (77%)
Writing library : XviD 1.2.1 (UTC 2008-12-04)
Audio
ID : 1
Format : AC-3
Format/Info : Audio Coding 3
Mode extension : CM (complete main)
Codec ID : 2000
Duration : 1h 45mn
Bit rate mode : Constant
Bit rate : 448 Kbps
Channel(s) : 6 channels
Channel positions : Front: L C R, Side: L R, LFE
Sampling rate : 48.0 KHz
Bit depth : 16 bits
Compression mode : Lossy
Stream size : 337 MiB (23%)
Alignment : Split accross interleaves
Interleave, duration : 40 ms (1.00 video frame)
Interleave, preload duration : 500 ms


Download / Скачать

Хотите скачать бесплатно? Зарегистрируйтесь на сайте (ссылка на регистрацию). Pirat.ca - самый быстрый торрент трекер в рунете!

Как скачивать  ·   Что такое торрент  ·   Рейтинг и ограничения



Последний раз редактировалось: oldzren (2012-12-15 10:37), всего редактировалось 3 раз(а)

Пост 05-Ноя-2011 20:44 (спустя 4 минуты)

Топик был перенесен из форума Наше Кино в форум Новинки (рипы)

Skinwalker
 

ka1iostro

Корсар

Пост 06-Ноя-2011 13:50 (спустя 17 часов)

[Q] 

спасибо посмотрим.
[Профиль]  [ЛС] 

oldzren ®

Шкипер

184

Пост 07-Ноя-2011 12:59 (спустя 23 часа)

[Q] 

В связи с этой новостью торрент-файл будет восстановлен в 15-15 по московскому времени.

_________________
[Профиль]  [ЛС] 

dimonpa

Гроза морей

Пост 07-Ноя-2011 14:58 (спустя 1 час 58 минут)

[Q] 

Спасибо !!!
[Профиль]  [ЛС] 

oldzren ®

Шкипер

184

Пост 07-Ноя-2011 16:15 (спустя 1 час 17 минут)

[Q] 

Торрент восстановлен. Помогающим раздавать просьба скачать торрент заново.

_________________
[Профиль]  [ЛС] 

Raiser

Штурман

Пост 07-Ноя-2011 17:16 (спустя 1 час)

[Q] 

Поможем...

_________________
Ценитель High Definition Video
[Профиль]  [ЛС] 

Пост 08-Дек-2011 13:03 (спустя 1 месяц)

Топик был перенесен из форума Новинки (HD|DVD|BD|TV|SAT|PDTV| - Rips) в форум Российские фильмы

oliks
 

Arabeska

Лоцман

Пост 16-Фев-2012 17:59 (спустя 3 месяца 9 дней)

[Q] 

У меня на плеере постоянно виснет, а как у остальных?
[Профиль]  [ЛС] 

Артёмыч

Штурман

Пост 01-Май-2012 23:28 (спустя 2 месяца 14 дней)

[Q] 

я слышал очень хороший фильм
[Профиль]  [ЛС] 

tema36

Лоцман

17

Пост 16-Окт-2013 08:45 (спустя 1 год 5 месяцев)

[Q] 

Тех, кто посмотрел фильм "ПирамМмида" прошу обратить внимание на следующую раздачу про современную МММ:
Система МММ-2012 для чайников. Диск с обучающими материалами.
Система МММ-2012 для чайников. Диск с обучающими материалами (2013 г., финансы, RUS]
Узнай правду об МММ!
Всё только начинается!
[Профиль]  [ЛС] 
Показать сообщения:    
Ответить на тему

Текущее время: Сегодня 16:11

Часовой пояс: GMT + 4



Вы не можете начинать темы
Вы не можете отвечать на сообщения
Вы не можете редактировать свои сообщения
Вы не можете удалять свои сообщения
Вы не можете голосовать в опросах
Вы не можете прикреплять файлы к сообщениям
Вы не можете скачивать файлы

▼ Вниз