ML
     
  Уважаемый Гость!
Вы можете поддержать проект и зарегистрироваться у наших партнеров - онлайн-стратегия MyLands. При регистрации в игре Вы получите код, который сможете активировать после регистрации на pirat.ca и получить 1000 дублонов.

Ваш код:
69f316be79867e9bf99caee9682d20bb11964507
 
     

Личный номер (Евгений Лаврентьев) [2004 г., боевик, триллер, приключения, криминал, DVDRip]

Ответить на тему
 
Автор
Сообщение

Пост 05-Ноя-2011 21:07

[Q] 

oldzren

Шкипер

Личный номер
Год выпуска: 2004
Жанр: боевик, триллер, приключения, криминал
Продолжительность: 01:45:53
Режиссер: Евгений Лаврентьев
В ролях: Алексей Макаров, Луиза Ломбард, Вячеслав Разбегаев, Егор Позенко, Виктор Вержбицкий, Мария Голубкина, Юрий Цурило
Описание: Cилы международного альянса противостоят террористической атаке и спасают жизни тысяч людей в Риме и Москве. Эпизоды захвата заложников и переговоров на высшем уровне тесно переплетены с политическими интригами и человеческой драмой офицера российских спецслужб, который спасает от террористов свою дочь и отстаивает офицерскую честь.
Источник/Качество: DVDRip
Формат: AVI
Видео кодек: XviD
Аудио кодек: AC3
Видео: 640x352 (1.82:1), 25 fps, XviD build 45 ~1320 kbps avg, 0.23 bit/pixel
Аудио: 48 kHz, AC3 Dolby Digital, 2/0 (L,R) ch, ~448.00 kbps avg
General
Format : AVI
Format/Info : Audio Video Interleave
File size : 1.37 GiB
Duration : 1h 45mn
Overall bit rate : 1 849 Kbps
Writing application : VirtualDubMod 1.5.4.1 (build 2178/release)
Writing library : VirtualDubMod build 2178/release
Video
ID : 0
Format : MPEG-4 Visual
Format profile : Advanced [email protected]
Format settings, BVOP : 1
Format settings, QPel : No
Format settings, GMC : No warppoints
Format settings, Matrix : Custom
Codec ID : XVID
Codec ID/Hint : XviD
Duration : 1h 45mn
Bit rate : 1 394 Kbps
Width : 640 pixels
Height : 352 pixels
Display aspect ratio : 16:9
Frame rate : 25.000 fps
Color space : YUV
Chroma subsampling : 4:2:0
Bit depth : 8 bits
Scan type : Progressive
Compression mode : Lossy
Bits/(Pixel*Frame) : 0.248
Stream size : 1.03 GiB (75%)
Writing library : XviD 1.2.0.dev45 (UTC 2006-07-10)
Audio
ID : 1
Format : AC-3
Format/Info : Audio Coding 3
Mode extension : CM (complete main)
Codec ID : 2000
Duration : 1h 45mn
Bit rate mode : Constant
Bit rate : 448 Kbps
Channel(s) : 2 channels
Channel positions : Front: L R
Sampling rate : 48.0 KHz
Bit depth : 16 bits
Compression mode : Lossy
Stream size : 339 MiB (24%)
Alignment : Split accross interleaves
Interleave, duration : 96 ms (2.40 video frames)
Interleave, preload duration : 96 ms
Language : Russian









Download / Скачать

Хотите скачать бесплатно? Зарегистрируйтесь на сайте (ссылка на регистрацию). Pirat.ca - самый быстрый торрент трекер в рунете!

Как скачивать  ·   Что такое торрент  ·   Рейтинг и ограничения



Последний раз редактировалось: oldzren (2012-12-15 10:35), всего редактировалось 3 раз(а)

Luzhok

Легенда

Пост 05-Ноя-2011 21:46 (спустя 39 минут)

[Q] 

помогаю с раздачей
oldzren, спасибо
[Профиль]  [ЛС] 

Пост 05-Ноя-2011 21:48 (спустя 1 минута)

Топик был перенесен из форума Наше Кино в форум Российские фильмы

Skinwalker
 

oldzren ®

Шкипер

184

Пост 07-Ноя-2011 12:51 (спустя 1 день 15 часов)

[Q] 

Перезалит торрент, обновите!

_________________
[Профиль]  [ЛС] 

Luzhok

Легенда

Пост 07-Ноя-2011 12:56 (спустя 5 минут)

[Q] 

oldzren,
тут такая же фигня, как в "Колхоз Интертейнмент"
люди за ночь тучу торрентов перезалили, нигде не надо было скачивать по новой, максимум перехешировать, а в основном - и так всё само цеплялось
например, "Слушатель" без всяких хлопот проскочил
а тут...
[Профиль]  [ЛС] 

oldzren ®

Шкипер

184

Пост 07-Ноя-2011 13:50 (спустя 53 минуты)

[Q] 

Торрент-файл восстановлен.

_________________
[Профиль]  [ЛС] 

Luzhok

Легенда

Пост 07-Ноя-2011 20:37 (спустя 6 часов)

[Q] 

oldzren,
тут всё тоже теперь нормально
ну, по пиву?
[Профиль]  [ЛС] 

oldzren ®

Шкипер

184

Пост 07-Ноя-2011 21:32 (спустя 55 минут)

[Q] 

Надо еще чего-нибудь замутить на раздачу пока место есть:))

_________________
[Профиль]  [ЛС] 

Luzhok

Легенда

Пост 07-Ноя-2011 23:36 (спустя 2 часа 3 минуты)

[Q] 

oldzren,
давай!
как можно больше классических советских фильмов, лучше комедий,
тут я всегда поддержу, если, конечно, не найду у себя более качественных релизов
только не надо пересекаться с kufre ( http://pirat.ca/profile.php?mode=viewprofile&u=10683 )
он молодец, много по теме выкладывает
чего и тебе, дружище, желаю
[Профиль]  [ЛС] 

hohol541

Корсар

Пост 29-Дек-2012 00:20 (спустя 1 год 1 месяц)

[Q] 

Фуфел полный.
[Профиль]  [ЛС] 

oldzren ®

Шкипер

184

Пост 29-Дек-2012 09:46 (спустя 9 часов)

[Q] 

Нормальное "героическое кино", наш спецназ - самый спецназовый спецназ в мире.

_________________
[Профиль]  [ЛС] 

vik238

Корсар

Пост 05-Май-2013 21:20 (спустя 4 месяца 7 дней)

[Q] 

[Профиль]  [ЛС] 
Показать сообщения:    
Ответить на тему

Текущее время: Сегодня 14:32

Часовой пояс: GMT + 4



Вы не можете начинать темы
Вы не можете отвечать на сообщения
Вы не можете редактировать свои сообщения
Вы не можете удалять свои сообщения
Вы не можете голосовать в опросах
Вы не можете прикреплять файлы к сообщениям
Вы не можете скачивать файлы

▼ Вниз