ML
     
  Уважаемый Гость!
Вы можете поддержать проект и зарегистрироваться у наших партнеров - онлайн-стратегия MyLands. При регистрации в игре Вы получите код, который сможете активировать после регистрации на pirat.ca и получить 1000 дублонов.

Ваш код:
74c28610d77aaac24ba694c4128f3b9b46b04220
 
     

Свои (Дмитрий Месхиев) [2004 г., боевик, драма, военный, DVDRip]

Ответить на тему
 
Автор
Сообщение

Пост 28-Окт-2011 11:49

[Q] 

ev5

Морской Волк

Свои
Год выпуска: 2004
Жанр: боевик, драма, военный
Продолжительность: 01:50:41
Режиссер: Дмитрий Месхиев
В ролях: Константин Хабенский, Сергей Гармаш, Богдан Ступка, Наталья Суркова, Анна Михалкова, Фёдор Бондарчук, Михаил Евланов, Сергей Дьячков, Александр Половцев, Анна Белова
Описание: Любовь, предательство, месть — все смешалось на деревенском хуторе под Псковом в августе 1941 года. Вокруг бушует война, а здесь, вдали от военных действий, разыгрываются свои страсти. Трое сбежавших от немцев советских военнопленных прячутся в сарае у деревенского старосты.
Один из них, сын старика, влюблен в соседку. Но столь же страстно ее любит и местный полицай. По иронии судьбы враги по убеждениям становятся еще и соперниками в любви. Силы явно неравны: одному подчиняется вся округа, другой вынужден скрываться от него. Получив отказ, столь болезненный для мужского самолюбия, полицай решает использовать всю свою власть, чтобы устранить конкурента и завладеть девушкой против ее воли.
G:\Films\Svoi.avi
General
Complete name : G:\Films\Svoi.avi
Format : AVI
Format/Info : Audio Video Interleave
File size : 744 MiB
Duration : 1h 50mn
Overall bit rate : 939 Kbps
Director : Last Boy Scout
Writing application : VirtualDubMod 1.5.10.2 (build 2540/release)
Copyright : pirat.ca
Comment : DVDRip
Video #0
ID : 0
Format : MPEG-4 Visual
Format profile : [email protected]
Format settings, BVOP : Yes
Format settings, QPel : No
Format settings, GMC : No warppoints
Format settings, Matrix : Custom
Codec ID : XVID
Codec ID/Hint : XviD
Duration : 1h 50mn
Bit rate : 801 Kbps
Width : 640 pixels
Height : 272 pixels
Display aspect ratio : 2.35:1
Frame rate : 25.000 fps
Resolution : 24 bits
Colorimetry : 4:2:0
Scan type : Progressive
Bits/(Pixel*Frame) : 0.184
Stream size : 634 MiB (85%)
Writing library : XviD 1.2.1 (UTC 2008-12-04)
Audio #1
ID : 1
Format : MPEG Audio
Format version : Version 1
Format profile : Layer 3
Codec ID : 55
Codec ID/Hint : MP3
Duration : 1h 50mn
Bit rate mode : Constant
Bit rate : 128 Kbps
Channel(s) : 2 channels
Sampling rate : 48.0 KHz
Resolution : 16 bits
Stream size : 101 MiB (14%)
Alignment : Aligned on interleaves
Interleave, duration : 40 ms (1.00 video frame)
Interleave, preload duration : 504 ms
Writing library : LAME3.98r
Encoding settings : -m s -V 4 -q 2 -lowpass 17 -b 128
Качество: DVDRip
Формат: AVI
Видео кодек: XviD
Аудио кодек: MP3
Видео: 640x272 (2.35:1), 25 fps, XviD build 50 ~801 kbps avg, 0.18 bit/pixel
Аудио: 48 kHz, MPEG Layer 3, 2 ch, ~128.00 kbps avg



Download / Скачать

Хотите скачать бесплатно? Зарегистрируйтесь на сайте (ссылка на регистрацию). Pirat.ca - самый быстрый торрент трекер в рунете!

Как скачивать  ·   Что такое торрент  ·   Рейтинг и ограничения



Последний раз редактировалось: ev5 (2011-10-29 10:14), всего редактировалось 1 раз

Пост 29-Окт-2011 15:49 (спустя 1 день 3 часа)

Топик был перенесен из форума Наше Кино в форум Российские фильмы

Чужая
 

erchine

44808

Пост 25-Июл-2012 11:41 (спустя 8 месяцев 27 дней)

[Q] 

-Фильмы с участием Богдана Ступки на трекере:-Дом (Олег Погодин) [2011 г.] (Драма, криминал) [DVD-9] [internal release] (пост)-Огнем и мечом / Ogniem i mieczem (Ежи Гоффман / Jerzy Hoffman) [1999 г., драма, мелодрама, приключения, военный, история, BDRip-AVC] MVO [Jolly Roger]-[Jolly Roger] Старое предание. Когда солнце было богом / Stara basn. Kiedy slonce bylo bogiem (Ежи Гоффман / Jerzy Hoffman) [2003 г., фэнтези, драма, DVDRip] MVO-Свои (Дмитрий Месхиев) [2004 г., боевик, драма, военный, DVDRip]-Сонька золотая ручка (Сезон: 1 / Серии: 1-12 из 12) (Виктор Мережко) [2007 г., драма, детектив, DVDRip]-Трое и снежинка (Павел Бардин, Мгер Мкртчян ) [2007 г.,Комедия, мелодрама, DVDRip ]-Александр. Невская битва (Игорь Каленов) [2008 г., Драма, военный, биография, история, BDRip]-Огни притона (Александр Гордон) [2011 г., драма, мелодрама, музыка, DVDRip]-Шантрапа / Shantrapa (Отар Иоселиани / Otar Iosseliani) [2010 г., комедия, биография, DVDRip] (Лицензия)-Тарас Бульба (Владимир Бортко) [2009 г., История, военный, драма, BDRip]
[Профиль]  [ЛС] 

Wolf111

57101

Пост 09-Фев-2013 14:00 (спустя 6 месяцев 15 дней)

[Q] 

[Профиль]  [ЛС] 

Sergi4

Гроза морей

Пост 18-Фев-2013 13:39 (спустя 8 дней)

[Q] 

[Профиль]  [ЛС] 

denis1705

Корсар

Пост 01-Сен-2013 17:07 (спустя 6 месяцев 11 дней)

[Q] 

Спасибо!!!
[Профиль]  [ЛС] 

CHARLI2236

1096

Пост 12-Сен-2013 13:02 (спустя 10 дней)

[Q] 

подключусь AntiZip 3

_________________
[Профиль]  [ЛС] 

CHARLI2236

1096

Пост 12-Сен-2013 13:03 (спустя 50 секунд)

[Q] 

подключусь AntiZip 4

_________________
[Профиль]  [ЛС] 
Показать сообщения:    
Ответить на тему

Текущее время: Сегодня 10:01

Часовой пояс: GMT + 4



Вы не можете начинать темы
Вы не можете отвечать на сообщения
Вы не можете редактировать свои сообщения
Вы не можете удалять свои сообщения
Вы не можете голосовать в опросах
Вы не можете прикреплять файлы к сообщениям
Вы не можете скачивать файлы

▼ Вниз