ML
     
  Уважаемый Гость!
Вы можете поддержать проект и зарегистрироваться у наших партнеров - онлайн-стратегия MyLands. При регистрации в игре Вы получите код, который сможете активировать после регистрации на pirat.ca и получить 1000 дублонов.

Ваш код:
ec3b26eefbcdc72e08e9fd33c6846bb2ca10f8b1
 
     

Я (Игорь Волошин) [2009 г., драма, DVDRip] (Original)

Ответить на тему
 
Автор
Сообщение

Пост 06-Ноя-2011 02:46

[Q] 

Voldemar

Я
Год выпуска: 2009
Страна: Россия, VVP Alians
Жанр: драма
Продолжительность: 1:28:46
Перевод: Не требуется
Режиссер: Игорь Волошин
В ролях: Артур Смольянинов, Андрей Хабаров, Оксана Акиньшина, Алексей Горбунов, Петр Зайченко, Мария Шалаева, Анна Михалкова, Михаил Евланов, Алексей Полуян, Владимир Сороколита
Описание:
Молодой человек собирается откосить от армии в районной психбольнице. Но игра с системой затягивается — пройдя принудительное лечение, герой с желтым билетом на руках выбирается на свободу. Через три этапа жизни — его детство, отрочество и юность — на экране проходит жизнь целого потерянного поколения конца советской эпохи.
Рейтинг на IMDB - 6.1/10
Качество: DVDRip
Формат
: AVI
Видео кодек: XVID (XviD MPEG-4 codec)
Аудио кодек: 0x2000 (AC3 DVM)
Видео: 1750 kb/s, 704x288, 25 кадров/сек
Аудио: Russian: 48000 Гц, 6 каналов, 448 Кбит/сек
Общее
Полное имя : G:\Я_[pirat.ca].avi
Формат : AVI
Формат/Информация : Audio Video Interleave
Размер файла : 1,37 Гбайт
Продолжительность : 1 ч. 28 м.
Общий поток : 2205 Кбит/сек
Программа кодирования : VirtualDubMod 1.5.10.2 (build 2540/release)
Библиотека кодирования : VirtualDubMod build 2540/release
Видео
Идентификатор : 0
Формат : MPEG-4 Visual
Профиль формата : Advanced [email protected]
Параметр BVOP формата : 2
Параметр QPel формата : Нет
Параметр GMC формата : Без точки перехода
Параметр матрицы формата : Default (MPEG)
Режим смешивания : Сжатый битовый поток
Идентификатор кодека : XVID
Идентификатор кодека/Подсказка : XviD
Продолжительность : 1 ч. 28 м.
Битрейт : 1747 Кбит/сек
Ширина : 704 пикселя
Высота : 288 пикселей
Соотношение сторон : 2,40:1
Частота кадров : 25,000 кадров/сек
Цветовое пространство : YUV
Субдискретизация насыщенности : 4:2:0
Битовая глубина : 8 бит
Тип развёртки : Прогрессивная
Метод сжатия : С потерями
Бит/(Пиксели*Кадры) : 0.345
Размер потока : 1,08 Гбайт (79%)
Библиотека кодирования : XviD 1.2.1 (UTC 2008-12-04)
Аудио
Идентификатор : 1
Формат : AC-3
Формат/Информация : Audio Coding 3
Расширение режима : CM (complete main)
Идентификатор кодека : 2000
Продолжительность : 1 ч. 28 м.
Вид битрейта : Постоянный
Битрейт : 448 Кбит/сек
Каналы : 6 каналов
Расположение каналов : Front: L C R, Side: L R, LFE
Частота : 48,0 КГц
Битовая глубина : 16 бит
Метод сжатия : С потерями
Размер потока : 284 Мбайт (20%)
Выравнивание : Разделение по промежуткам
Продолжительность промежутка : 40 мс. (1,00 видеокадр)
Время предзагрузки промежутка : 500 мс.



Download / Скачать

Хотите скачать бесплатно? Зарегистрируйтесь на сайте (ссылка на регистрацию). Pirat.ca - самый быстрый торрент трекер в рунете!

Как скачивать  ·   Что такое торрент  ·   Рейтинг и ограничения



Последний раз редактировалось: Voldemar (2011-11-14 22:45), всего редактировалось 5 раз(а)

Пост 14-Ноя-2011 23:44 (спустя 8 дней)

Топик был перенесен из форума Подвал (для восстановления раздач) в форум Российские фильмы

oliks
 

granddirektor2011

Лоцман

Пост 01-Янв-2012 17:17 (спустя 1 месяц 25 дней)

[Q] 

Интересно посмотреть. Спасибо за раздачу!
[Профиль]  [ЛС] 

sandman1973

Гроза морей

2128

Пост 23-Июл-2012 01:25 (спустя 6 месяцев 21 день)

[Q] 

Фильм - ОГОНЬ!

_________________

[Профиль]  [ЛС] 

sergeygerm

Лоцман

Пост 25-Фев-2014 18:48 (спустя 1 год 7 месяцев)

[Q] 

класный безумный фильм
[Профиль]  [ЛС] 

erda

Морской Волк

Пост 02-Мар-2014 17:36 (спустя 4 дня)

[Q] 

фильм шикарен!!! Раздающему респект!
[Профиль]  [ЛС] 
Показать сообщения:    
Ответить на тему

Текущее время: Сегодня 03:52

Часовой пояс: GMT + 4



Вы не можете начинать темы
Вы не можете отвечать на сообщения
Вы не можете редактировать свои сообщения
Вы не можете удалять свои сообщения
Вы не можете голосовать в опросах
Вы не можете прикреплять файлы к сообщениям
Вы не можете скачивать файлы

▼ Вниз