ML
     
  Уважаемый Гость!
Вы можете поддержать проект и зарегистрироваться у наших партнеров - онлайн-стратегия MyLands. При регистрации в игре Вы получите код, который сможете активировать после регистрации на pirat.ca и получить 1000 дублонов.

Ваш код:
8b29d0f8cd61fe457e59e7df0aa1fab41a2b88b9
 
     

Поцелуй сквозь стену (Вартан Акопян) [2011 г., фантастика, мелодрама, комедия, HDRip]

Ответить на тему
 
Автор
Сообщение

Пост 06-Ноя-2011 17:00

[Q] 

zyyx

--Поцелуй сквозь стену
«Любовь и... никакого мошенничества»
-- Год выпуска: 2011
Мировая премьера: 27 января 2011
Российская премьера: 25 января 2011, «Парадиз»
Дата выхода DVD: 24 февраля 2011, «Парадиз Видео»
Страна: Россия
Дата выхода Blu-Ray: 24 февраля 2011, «Парадиз Видео»
Жанр: фантастика, мелодрама, комедия
Продолжительность: 01:30:06
Перевод: Оригинальное [лицензия]
Режиссер: Вартан Акопян
В ролях: Антон Шагин, Карина Андоленко, Павел Воля, Александр Адабашьян, Михаил Тарабукин, Иван Охлобыстин, Анна Бердникова, Сергей Газаров, Светлана Немоляева, Олег Тополянский
Описание: Что нужно сделать, чтобы добиться любви дерзкой журналистки, да еще по имени Алиса? Подарить ей лютики? Сказать: «Алиса, лисичка моя». Подкатить на карете? Или тупо завалить ее деньгами и подарками? Пока Кеша, помощник знаменитого фокусника, ломает над этим голову, его увольняют с работы и он остается с двумя десятками в кармане и чувством, что жизнь не удалась. Да и те клянчит какой-то бродяга, обещая исполнить любое его желание. А после встречи с ним, Кеша осознает: Он умеет проходить сквозь стены! Его новый дар — путь к счастью. Но даже, если все стены мира — не помеха, как пробиться к сердцу любимой?-Сэмпл | IMDB | КиноПоиск-Источник/Качество: HDRip
Формат: AVI
Видео кодек: XviD
Аудио кодек: MP3
Видео: 640x272 (2.35:1), 23.976 fps, XviD build 64, 1022 kbps avg, 0.25 bit/pixel
Аудио: 48 kHz, MPEG Layer 3, 2 ch, 128.00 kbps avg
Общее
Полное имя : D:\pirat.ca\Поцелуй сквозь стену_745.avi
Формат : AVI
Формат/Информация : Audio Video Interleave
Размер файла : 748 Мбайт
Продолжительность : 1 ч. 30 м.
Общий поток : 1160 Кбит/сек
Программа кодирования : VirtualDubMod 1.5.10.3 | www.virtualdub-fr.org || (build 2550/release)
Библиотека кодирования : VirtualDubMod build 2550/release
Видео
Идентификатор : 0
Формат : MPEG-4 Visual
Профиль формата : Advanced [email protected]
Параметр BVOP формата : 1
Параметр QPel формата : Нет
Параметр GMC формата : Без точки перехода
Параметр матрицы формата : Выборочная
Идентификатор кодека : XVID
Идентификатор кодека/Подсказка : XviD
Продолжительность : 1 ч. 30 м.
Битрейт : 1023 Кбит/сек
Ширина : 640 пикселей
Высота : 272 пикселя
Соотношение сторон : 2,35:1
Частота кадров : 23,976 кадра/сек
Цветовое пространство : YUV
Субдискретизация насыщенности : 4:2:0
Битовая глубина : 8 бит
Тип развёртки : Прогрессивная
Метод сжатия : С потерями
Бит/(Пиксели*Кадры) : 0.245
Размер потока : 659 Мбайт (88%)
Библиотека кодирования : XviD 64
Аудио
Идентификатор : 1
Формат : MPEG Audio
Версия формата : Version 1
Профиль формата : Layer 3
Идентификатор кодека : 55
Идентификатор кодека/Подсказка : MP3
Продолжительность : 1 ч. 30 м.
Вид битрейта : Постоянный
Битрейт : 128 Кбит/сек
Каналы : 2 канала
Частота : 48,0 КГц
Метод сжатия : С потерями
Размер потока : 82,5 Мбайт (11%)
Выравнивание : Соединение по промежуткам
Продолжительность промежутка : 42 мс. (1,00 видеокадр)
Время предзагрузки промежутка : 504 мс.
Библиотека кодирования : LAME3.98r
Настройки программы : -m s -V 4 -q 0 -lowpass 17 -b 128


Download / Скачать

Хотите скачать бесплатно? Зарегистрируйтесь на сайте (ссылка на регистрацию). Pirat.ca - самый быстрый торрент трекер в рунете!

Как скачивать  ·   Что такое торрент  ·   Рейтинг и ограничения

Пост 06-Ноя-2011 18:30 (спустя 1 час 29 минут)

Топик был перенесен из форума Наше Кино в форум Новинки (HD|DVD|BD|TV|SAT|PDTV| - Rips)

Skinwalker
 

polozm

Легенда

Пост 07-Ноя-2011 15:33 (спустя 22 часа)

[Q] 

спасибо!гляну на охлобыстина и волю :)

_________________
mac mini -2.0 GHz Intel Core i7/ 8 GB DDR3. /Intel HD 3000(512mb)OS X 10.9 Mavericks
[Профиль]  [ЛС] 

Пост 08-Дек-2011 12:59 (спустя 1 месяц)

Топик был перенесен из форума Новинки (HD|DVD|BD|TV|SAT|PDTV| - Rips) в форум Российские фильмы

oliks
 

KIRST

Корсар

Пост 20-Янв-2012 22:43 (спустя 2 месяца 13 дней)

[Q] 

Спасибо, посмотрим.
[Профиль]  [ЛС] 

CHARLI2236

1097

Пост 25-Июл-2013 19:15 (спустя 1 год 6 месяцев)

[Q] 

8

_________________
[Профиль]  [ЛС] 
Показать сообщения:    
Ответить на тему

Текущее время: Сегодня 21:23

Часовой пояс: GMT + 4



Вы не можете начинать темы
Вы не можете отвечать на сообщения
Вы не можете редактировать свои сообщения
Вы не можете удалять свои сообщения
Вы не можете голосовать в опросах
Вы не можете прикреплять файлы к сообщениям
Вы не можете скачивать файлы

▼ Вниз