ML
     
  Уважаемый Гость!
Вы можете поддержать проект и зарегистрироваться у наших партнеров - онлайн-стратегия MyLands. При регистрации в игре Вы получите код, который сможете активировать после регистрации на pirat.ca и получить 1000 дублонов.

Ваш код:
59354507ba913a0948d1a8f2e30f2e04c4cd7b9b
 
     

Неадекватные люди (Роман Каримов) [2010 г., Комедия, DVDRip]

Ответить на тему
 
Автор
Сообщение

Пост 06-Ноя-2011 21:21

[Q] 

Znoi

Флибустьер

--Неадекватные люди
--Год выпуска: 2010
Российская премьера: 13 января 2011
Дата выхода DVD: 10 февраля 2011
Производство: Россия, Cinema Prime Film
Жанр: Комедия
Продолжительность: 01:41:54
Оригинальный аудиопоток: Русский--Режиссер: Роман Каримов--В ролях: Ингрид Олеринская, Назар Ас-Самаррай, Артем Душкин, Полина Иосилевич, Илья Любимов, Юлия Такшина, Влад Топалов, Анастасия Федоркова, Евгений Цыганов, Марина Зайцева--Описание: Тихий и воспитанный Виталик пытается начать жизнь с нуля в новом городе. Но странным образом ему на пути попадаются одни сумасшедшие. Его соседкой по лестничной площадке оказывается взбалмошная Кристина, стремящаяся переделать его из задрота в нормального мужика, на новой работе атакует похотливая начальница и даже психолог, помогающий ему совладать со всем этим — и тот оказывается садо-мазохистом. Виталик кажется единственным адекватным человеком здесь. Но так ли это на самом деле?-- --Источник/Качество: DVDRip
Формат: AVI
Стандарт разрешения: 720p
Видео кодек: XviD
Аудио кодек: AC3
Видео: XviD, 720x400,1 801 Kbps, 25.000 fps
Аудио: AC3, 6 ch, 384 Kbps, 48.0 KHz
Субтитры: нет
General
Complete name : C:\Users\Desktop\Neadekvatnie.ljudi.2010.XviD.DVDRip.avi
Format : AVI
Format/Info : Audio Video Interleave
File size : 18.5 MiB
Duration : 1mn 10s
Overall bit rate : 2 196 Kbps
Writing application : VirtualDubMod 1.5.10.2 (build 2540/release)
Writing library : VirtualDubMod build 2540/release
Video
ID : 0
Format : MPEG-4 Visual
Format profile : Advanced [email protected]
Format settings, BVOP : 2
Format settings, QPel : No
Format settings, GMC : No warppoints
Format settings, Matrix : Custom
Codec ID : XVID
Codec ID/Hint : XviD
Duration : 1mn 10s
Bit rate : 1 801 Kbps
Width : 720 pixels
Height : 400 pixels
Display aspect ratio : 16:9
Frame rate : 25.000 fps
Color space : YUV
Chroma subsampling : 4:2:0
Bit depth : 8 bits
Scan type : Progressive
Compression mode : Lossy
Bits/(Pixel*Frame) : 0.250
Stream size : 15.1 MiB (82%)
Writing library : XviD 58
Audio
ID : 1
Format : AC-3
Format/Info : Audio Coding 3
Mode extension : CM (complete main)
Codec ID : 2000
Duration : 1mn 10s
Bit rate mode : Constant
Bit rate : 384 Kbps
Channel(s) : 6 channels
Channel positions : Front: L C R, Side: L R, LFE
Sampling rate : 48.0 KHz
Bit depth : 16 bits
Compression mode : Lossy
Delay relative to video : 24ms
Stream size : 3.23 MiB (17%)
Alignment : Split accross interleaves
Interleave, duration : 40 ms (1.01 video frame)
Interleave, preload duration : 500 ms



Download / Скачать

Хотите скачать бесплатно? Зарегистрируйтесь на сайте (ссылка на регистрацию). Pirat.ca - самый быстрый торрент трекер в рунете!

Как скачивать  ·   Что такое торрент  ·   Рейтинг и ограничения



Последний раз редактировалось: Znoi (2011-12-14 10:29), всего редактировалось 6 раз(а)

Пост 06-Ноя-2011 21:27 (спустя 6 минут)

Топик был перенесен из форума Художественные фильмы (Зарубежное кино) в форум Новинки (HD|DVD|BD|TV|SAT|PDTV| - Rips)

Skinwalker
 

polozm

Легенда

Пост 07-Ноя-2011 15:47 (спустя 18 часов)

[Q] 

спасибо большое
не порно но задорно?

_________________
mac mini -2.0 GHz Intel Core i7/ 8 GB DDR3. /Intel HD 3000(512mb)OS X 10.9 Mavericks
[Профиль]  [ЛС] 

Пост 08-Дек-2011 13:02 (спустя 1 месяц)

Топик был перенесен из форума Новинки (HD|DVD|BD|TV|SAT|PDTV| - Rips) в форум Российские фильмы

oliks
 

CHARLI2236

1091

Пост 12-Сен-2013 12:34 (спустя 1 год 10 месяцев)

[Q] 

подключусь AntiZip 1

_________________
[Профиль]  [ЛС] 

ТАЛИ

Корсар

Пост 10-Май-2015 01:18 (спустя 1 год 7 месяцев)

[Q] 

Фильм отличается диалогами с претензией на остроумие и абсолютной ненатуральностью происходящего. Главный герой должен был изображать пытающегося бороться с неконтролируемым гневом страдающего психопата, а получился слегка заторможенный персонаж, заставляющий себя через силу время от времени вспылить. Девица - вообще как сомнамбула с вечно полузакрытыми глазами и отсутствием воспитания. Совершенно непонятно, с чего все вокруг с ней носятся.
А еще этот бессовестный продактплейсмент книжонки отстойного психолога с манией величия Козлова... Правда порадовало то, что персонаж получился, специально или случайно, редкостным придурком, совсем как прототип:)
[Профиль]  [ЛС] 
Показать сообщения:    
Ответить на тему

Текущее время: Сегодня 16:10

Часовой пояс: GMT + 4



Вы не можете начинать темы
Вы не можете отвечать на сообщения
Вы не можете редактировать свои сообщения
Вы не можете удалять свои сообщения
Вы не можете голосовать в опросах
Вы не можете прикреплять файлы к сообщениям
Вы не можете скачивать файлы

▼ Вниз