ML
     
  Уважаемый Гость!
Вы можете поддержать проект и зарегистрироваться у наших партнеров - онлайн-стратегия MyLands. При регистрации в игре Вы получите код, который сможете активировать после регистрации на pirat.ca и получить 1000 дублонов.

Ваш код:
aec9a4a936117fb450ba69e519991a0465404b1d
 
     

Ландыш серебристый (Тигран Кеосаян) [2000 г.] (Комедия, мелодрама) [DVDRip]

Ответить на тему
 
Автор
Сообщение

Пост 07-Ноя-2011 15:23

[Q] 

Creed72

Ландыш серебристый- Год выпуска: 2000
Жанр: Комедия, мелодрама
Продолжительность: 01:26:18
Страна: Россия
Перевод: Не требуется
Режиссер: Тигран Кеосаян
В ролях: Александр Цекало, Юрий Стоянов, Олеся Железняк, Владимир Ильин, Алена Хмельницкая, Валерий Гаркалин, Даниил Белых, Георгий Мартиросьян
Описание: Как стать звездой? Тернист путь к Олимпу. Юная Зоя Мисочкина в каталажке провинциального городка «Локотки» знакомится с двумя продюсерами — Придорожным и Болотовым, от которых только что сбежала примадонна Ирма.
Зоя страстно хочет петь, поэтому увязывается за новыми знакомыми и оказывается в большой квартире с двумя с виду серьезными господами, а при близком знакомстве — полусумасшедшими трогательными клоунами.
Жизнь Зойки переворачивается. Уроки вокала, салоны красоты, тренажерные залы, презентации — все это должно превратить никому не известную невзрачную девочку в новую поп-звезду.
Источник/Качество: DVDRip
Формат: AVI
Видео кодек: XviD
Аудио кодек: MP3
Видео: Xvid 704x480 25.00fps 2138kbps
Аудио: MPEG Audio Layer 3 48000Hz stereo 128kbps
General
Complete name : С:\Landysh.serebristiy.avi
Format : AVI
Format/Info : Audio Video Interleave
File size : 1.37 GiB
Duration : 1h 26mn
Overall bit rate : 2 276 Kbps
Writing library : VirtualDub build 31953/release
Video
ID : 0
Format : MPEG-4 Visual
Format profile : [email protected]
Format settings, BVOP : Yes
Format settings, QPel : No
Format settings, GMC : No warppoints
Format settings, Matrix : Default (H.263)
Muxing mode : Packed bitstream
Codec ID : XVID
Codec ID/Hint : XviD
Duration : 1h 26mn
Bit rate : 2 138 Kbps
Width : 704 pixels
Height : 480 pixels
Display aspect ratio : 1.467
Frame rate : 25.000 fps
Resolution : 24 bits
Colorimetry : 4:2:0
Scan type : Progressive
Bits/(Pixel*Frame) : 0.253
Stream size : 1.29 GiB (94%)
Writing library : XviD 1.2.1 (UTC 2008-12-04)
Audio
ID : 1
Format : MPEG Audio
Format version : Version 1
Format profile : Layer 3
Format_Settings_Mode : Joint stereo / MS Stereo
Codec ID : 55
Codec ID/Hint : MP3
Duration : 1h 26mn
Bit rate mode : Constant
Bit rate : 128 Kbps
Channel(s) : 2 channels
Sampling rate : 48.0 KHz
Resolution : 16 bits
Stream size : 79.0 MiB (6%)
Alignment : Split accross interleaves
Interleave, duration : 40 ms (1.00 video frame)
Interleave, preload duration : 500 ms
Раздача обновлена администрацией
Download / Скачать

Хотите скачать бесплатно? Зарегистрируйтесь на сайте (ссылка на регистрацию). Pirat.ca - самый быстрый торрент трекер в рунете!

Как скачивать  ·   Что такое торрент  ·   Рейтинг и ограничения



Последний раз редактировалось: Creed72 (2012-06-27 04:30), всего редактировалось 1 раз

Пост 13-Ноя-2011 11:09 (спустя 5 дней)

Топик был перенесен из форума Подвал (для восстановления раздач) в форум Российские фильмы

Чужая
 

holod1985

Лоцман

Пост 20-Дек-2011 00:04 (спустя 1 месяц 12 дней)

[Q] 

Спасибо, будем вспоминать :)
[Профиль]  [ЛС] 

windj

Корсар

73

Пост 17-Янв-2012 17:49 (спустя 28 дней)

[Q] 

Мне понравился.

_________________
[Профиль]  [ЛС] 

agamemnen

Шкипер

Пост 12-Фев-2012 00:48 (спустя 25 дней)

[Q] 

[Профиль]  [ЛС] 

Алексей63

Шкипер

Пост 04-Май-2012 22:35 (спустя 2 месяца 21 день)

[Q] 

Хорошая русская комедия.

_________________
[Профиль]  [ЛС] 

Пост 28-Июн-2012 17:49 (спустя 1 месяц 23 дня)

Топик был перенесен из форума Подвал (для восстановления раздач) в форум Российские фильмы

erchine
 
Показать сообщения:    
Ответить на тему

Текущее время: Сегодня 02:21

Часовой пояс: GMT + 4



Вы не можете начинать темы
Вы не можете отвечать на сообщения
Вы не можете редактировать свои сообщения
Вы не можете удалять свои сообщения
Вы не можете голосовать в опросах
Вы не можете прикреплять файлы к сообщениям
Вы не можете скачивать файлы

▼ Вниз