ML
     
  Уважаемый Гость!
Вы можете поддержать проект и зарегистрироваться у наших партнеров - онлайн-стратегия MyLands. При регистрации в игре Вы получите код, который сможете активировать после регистрации на pirat.ca и получить 1000 дублонов.

Ваш код:
dbd0d701284cde74a1f34d06ce20b7bc75a73e75
 
     

Глухарь в кино (Владимир Виноградов) [2010 г., комедия, криминал, детектив, DVDRip]

Ответить на тему
 
Автор
Сообщение

Пост 07-Ноя-2011 16:58

[Q] 

cergo

Гроза морей

Глухарь в кино Год выпуска: 2010
Жанр: комедия, криминал, детектив
Продолжительность: 01:26:04

Режиссер
: Владимир Виноградов
В ролях: Максим Аверин, Денис Рожков, Юрий Чурсин, Павел Басов, Вячеслав Манучаров, Борис Химичев, Любава Аристархова, Алексей Серебряков, Владимир Фекленко, Мария Рассказова
Описание: Два друга детства работают в одном отделении милиции. Сергей Глухарев — следователь, Денис Антошин — оперативник. Вечер, который они проводят с друзьями в ресторане, преподносит им ужасный сюрприз. Случайная ссора с одним из посетителей, после которого его находят убитым, переворачивает всю жизнь Глухарева и Антошина. Друзья объявлены в розыск как опасные преступники. Теперь за ними охотятся не только бывшие коллеги, но и профессиональный наемник, работающий на семью погибшего…

Источник/Качество
: DVDRip
Формат: AVI
Видео кодек: XviD
Аудио кодек: MP3
Видео: 640x352 (1.82:1), 25 fps, XviD MPEG-4 ~998 kbps avg, 0.18 bit/pixel
Аудио: 48 kHz, MPEG Layer 3, 2 ch, ~128.00 kbps avg
Формат : AVI
Формат/Информация : Audio Video Interleave
Размер файла : 700 Мбайт
Продолжительность : 1 ч. 26 м.
Общий поток : 1137 Кбит/сек
Программа кодирования : VirtualDubMod 1.5.10.2 (build 2540/release)
Библиотека кодирования : VirtualDubMod build 2540/release
Видео
Идентификатор : 0
Формат : MPEG-4 Visual
Профиль формата : Advanced [email protected]
Параметр BVOP формата : 2
Параметр QPel формата : Нет
Параметр GMC формата : Без точки перехода
Параметр матрицы формата : Default (MPEG)
Режим смешивания : Сжатый битовый поток
Идентификатор кодека : XVID
Идентификатор кодека/Подсказка : XviD
Продолжительность : 1 ч. 26 м.
Битрейт : 999 Кбит/сек
Ширина : 640 пикселей
Высота : 352 пикселя
Соотношение сторон : 16:9
Частота кадров : 25,000 кадров/сек
Цветовое пространство : YUV
Субдискретизация насыщенности : 4:2:0
Битовая глубина : 8 бит
Тип развёртки : Прогрессивная
Метод сжатия : С потерями
Бит/(Пиксели*Кадры) : 0.177
Размер потока : 615 Мбайт (88%)
Библиотека кодирования : XviD 1.2.1 (UTC 2008-12-04)
Аудио
Идентификатор : 1
Формат : MPEG Audio
Версия формата : Version 1
Профиль формата : Layer 3
Режим : Joint stereo
Расширение режима : MS Stereo
Идентификатор кодека : 55
Идентификатор кодека/Подсказка : MP3
Продолжительность : 1 ч. 26 м.
Вид битрейта : Постоянный
Битрейт : 128 Кбит/сек
Каналы : 2 канала
Частота : 48,0 КГц
Метод сжатия : С потерями
Размер потока : 78,8 Мбайт (11%)
Выравнивание : Соединение по промежуткам
Продолжительность промежутка : 40 мс. (1,00 видеокадр)
Время предзагрузки промежутка : 504 мс.
-Скриншоты--
Download / Скачать

Хотите скачать бесплатно? Зарегистрируйтесь на сайте (ссылка на регистрацию). Pirat.ca - самый быстрый торрент трекер в рунете!

Как скачивать  ·   Что такое торрент  ·   Рейтинг и ограничения



Последний раз редактировалось: cergo (2012-08-14 19:52), всего редактировалось 12 раз(а)

Пост 07-Ноя-2011 22:15 (спустя 5 часов)

Топик был перенесен из форума Наше Кино в форум Российские фильмы

Skinwalker
 

Luzhok

Легенда

Пост 09-Ноя-2011 10:21 (спустя 1 день 17 часов)

[Q] 

cergo,
спасибо
[Профиль]  [ЛС] 

cergo ®

Гроза морей

20034

Пост 09-Ноя-2011 17:51 (спустя 7 часов)

[Q] 

cergo,
спасибо
на здоровье
[Профиль]  [ЛС] 

Wolf111

57078

Пост 01-Сен-2013 16:42 (спустя 1 год 9 месяцев)

[Q] 

!COOL! AntiZip
[Профиль]  [ЛС] 

CHARLI2236

1089

Пост 12-Сен-2013 12:40 (спустя 10 дней)

[Q] 

подключусь AntiZip 10

_________________
[Профиль]  [ЛС] 
Показать сообщения:    
Ответить на тему

Текущее время: Сегодня 18:34

Часовой пояс: GMT + 4



Вы не можете начинать темы
Вы не можете отвечать на сообщения
Вы не можете редактировать свои сообщения
Вы не можете удалять свои сообщения
Вы не можете голосовать в опросах
Вы не можете прикреплять файлы к сообщениям
Вы не можете скачивать файлы

▼ Вниз