ML
     
  Уважаемый Гость!
Вы можете поддержать проект и зарегистрироваться у наших партнеров - онлайн-стратегия MyLands. При регистрации в игре Вы получите код, который сможете активировать после регистрации на pirat.ca и получить 1000 дублонов.

Ваш код:
93dbf9fbdfa06c41d3b5a2c3921149ba36168c41
 
     

Тайский вояж Степаныча (Максим Воронков.) [2005 г., комедия, DVDRip]

Ответить на тему
 
Автор
Сообщение

Пост 07-Ноя-2011 18:51

[Q] 

leha1975

Гроза морей

Тайский вояж Степаныча
Год выпуска: 2005
Жанр: комедия
Продолжительность: 01:35:33
Режиссер: Максим Воронков.
В ролях: Михаил Владимиров, Александр Пятков, Илья Олейников, Любовь Полищук, Алиса Гребенщикова, Станислав Садальский, Марина Ширшикова, Александр Аблязов, Юрий Сысоев, Александр Алексеев

Описание: 58-летний шофер КамАЗа — Тимофей Степанович Окопов — однажды на трудовом посту «накрыл» банду похитителей. За проявленный героизм владелец завода выдал Степанычу горящую путевку в Таиланд. Степаныч распрощался с супругой и полетел кутить в Бангкок, взяв в попутчики случайного знакомого — карточного шулера Сеню, обыгравшего накануне олигарха Ваху Воркутидзе.Посланные Воркутидзе бандиты братья Качко терпят неудачу за неудачей в попытках добраться до денег и документов на завод. В конце концов, напуганные угрозами Воркутидзе, они приходят к Сене «с повинной». Сеня нанимает их телохранителями. Путевка Степаныча заканчивается. Степаныч возвращается на родной завод. Теперь ему остается только вспоминать о солнце, пляжах и девушке Ли. Но он верит, что когда — нибудь обязательно вернется в Таиланд. Коллеги подсмеиваются над этой его мечтой. Но на заводе опять ЧП! На этот раз грабят бухгалтерию! И Степаныч с криком: «Даешь Таиланд!», и любимой монтировкой в руках бросается на злоумышленников.
Mediainfo
I:\пиратка\РАЗДАЧИ-2\Тайский вояж Степаныча.avi
General
Complete name : I:\пиратка\РАЗДАЧИ-2\Тайский вояж Степаныча.avi
Format : AVI
Format/Info : Audio Video Interleave
File size : 1.41 GiB
Duration : 1h 35mn
Overall bit rate : 2 112 Kbps
Writing application : VirtualDubMod 1.5.10.2 (build 2540/release)
Writing library : VirtualDubMod build 2540/release
Video #0
ID : 0
Format : MPEG-4 Visual
Format profile : Advanced [email protected]
Format settings, BVOP : 3
Format settings, QPel : No
Format settings, GMC : No warppoints
Format settings, Matrix : Default (MPEG)
Codec ID : XVID
Codec ID/Hint : XviD
Duration : 1h 35mn
Bit rate : 1 911 Kbps
Width : 720 pixels
Height : 432 pixels
Display aspect ratio : 1.667
Frame rate : 25.000 fps
Color space : YUV
Chroma subsampling : 4:2:0
Bit depth : 8 bits
Scan type : Progressive
Compression mode : Lossy
Bits/(Pixel*Frame) : 0.246
Stream size : 1.28 GiB (90%)
Writing library : XviD 1.2.0.dev47 (UTC 2006-11-01)
Audio #1
ID : 1
Format : AC-3
Format/Info : Audio Coding 3
Mode extension : CM (complete main)
Codec ID : 2000
Duration : 1h 35mn
Bit rate mode : Constant
Bit rate : 192 Kbps
Channel(s) : 2 channels
Channel positions : Front: L R
Sampling rate : 48.0 KHz
Bit depth : 16 bits
Compression mode : Lossy
Stream size : 131 MiB (9%)
Alignment : Split accross interleaves
Interleave, duration : 40 ms (1.00 video frame)
Interleave, preload duration : 500 ms
Источник/Качество: DVDRip
Формат: AVI
Видео кодек: XviD
Аудио кодек: AC3
Видео: 720x432 (1.67:1) 25 fps XviD build 47 1910 kbps avg 0.25 bit/pixel
Аудио: 48 kHz AC3 Dolby Digital 2/0 (L,R) ch 192 kbps
Download / Скачать

Хотите скачать бесплатно? Зарегистрируйтесь на сайте (ссылка на регистрацию). Pirat.ca - самый быстрый торрент трекер в рунете!

Как скачивать  ·   Что такое торрент  ·   Рейтинг и ограничения



Последний раз редактировалось: leha1975 (2011-11-07 19:05), всего редактировалось 1 раз

leha1975 ®

Гроза морей

3383

Пост 07-Ноя-2011 19:07 (спустя 16 минут)

[Q] 

Отчёт медиа инфо добавьте пожалуйста
Добавил

_________________

[Профиль]  [ЛС] 

Пост 07-Ноя-2011 19:10 (спустя 3 минуты)

Топик был перенесен из форума Наше Кино в форум Российские фильмы

Skinwalker
 

CHARLI2236

1094

Пост 26-Ноя-2011 18:22 (спустя 18 дней)

[Q] 

спасибо

_________________
[Профиль]  [ЛС] 

sppi9

Морской Волк

Пост 15-Дек-2011 13:21 (спустя 18 дней)

[Q] 

большое спасибо
[Профиль]  [ЛС] 

hohol541

Корсар

Пост 29-Дек-2012 10:06 (спустя 1 год)

[Q] 

Прикольный фильм.
[Профиль]  [ЛС] 

UncleFather

Легенда

Пост 24-Мар-2013 20:54 (спустя 2 месяца 26 дней)

[Q] 


_________________
Одни боялись Пью, другие - Билли Бонса, а меня... меня боялся сам Флинт
[Профиль]  [ЛС] 

Pit

Пост 17-Июн-2014 18:24 (спустя 1 год 2 месяца)

[Q] 

Вааще, спасибо. Ещё раз пересмотрел.
[Профиль]  [ЛС] 

Scorpion7474

Флибустьер

Пост 25-Сен-2014 15:27 (спустя 3 месяца 7 дней)

[Q] 

На любителя Лови бочку
[Профиль]  [ЛС] 
Показать сообщения:    
Ответить на тему

Текущее время: Сегодня 20:20

Часовой пояс: GMT + 4



Вы не можете начинать темы
Вы не можете отвечать на сообщения
Вы не можете редактировать свои сообщения
Вы не можете удалять свои сообщения
Вы не можете голосовать в опросах
Вы не можете прикреплять файлы к сообщениям
Вы не можете скачивать файлы

▼ Вниз