ML
     
  Уважаемый Гость!
Вы можете поддержать проект и зарегистрироваться у наших партнеров - онлайн-стратегия MyLands. При регистрации в игре Вы получите код, который сможете активировать после регистрации на pirat.ca и получить 1000 дублонов.

Ваш код:
dbd0d701284cde74a1f34d06ce20b7bc75a73e75
 
     

Испанский вояж Степаныча (Максим Воронков) [2006 г., Приключенческая комедия, DVDRip]

Ответить на тему
 
Автор
Сообщение

Пост 07-Ноя-2011 19:38

[Q] 

leha1975

Гроза морей

Испанский вояж Степаныча
Год выпуска: 2006
Жанр: Приключенческая комедия
Продолжительность: 01:18:39
Режиссер: Максим Воронков
В ролях: Илья Олейников, Любовь Полищук, Алиса Гребенщикова, Станислав Садальский, Михаил Владимиров, Михаил Галустян, Александр Пятков, Лада Дэнс, Денис Клявер, Станислав Костюшкин
Описание: Главный герой автомеханик Тимофей Степанович Окопов оказывается вместе с женой и дочерью на средиземноморском побережье Испании. Жена Люся и дочь Маша неусыпно следят за папой. Сами не отдыхают и ему не дают. Степаныч не в силах противостоять им в одиночку, тянет "туристическую" лямку и ждет приезда из Таиланда своего друга, авантюриста и прожигателя жизни, Сени. Ждет его не только Степаныч, но и Янычар, убийца, нанятый давним врагом Семена — олигархом Вахой Воркутидзе.
Море, солнце, красоты Испании, а, главное, все нарастающее ощущение ущербности, которая коренится в них самих, заставляют Люсю и Машу изменить отношение к жизни. Очередной скандал в семье, прерванный телефонным звонком наконец приехавшего Сени, дает Маше и Люсе толчок к практическим действиям по превращению себя в других женщин. Они отправляются в поход по косметическим кабинетам и магазинам.
Степаныч встречается с Сеней. Янычар предпринимает пару неудачных попыток устранить Сеню, а когда это не удается, похищает дочь Степаныча Машу. Наши герои освобождают девушку. Злобный олигарх Воркутидзе и его подручные оказываются в руках правосудия. Сеня влюбляется в Машу. Степаныч без ума от похорошевшей и словно вернувшей себе молодость жены...

Mediainfo
I:\пиратка\РАЗДАЧИ-2\Испанский вояж Степаныча.avi
General
Complete name : I:\пиратка\РАЗДАЧИ-2\Испанский вояж Степаныча.avi
Format : AVI
Format/Info : Audio Video Interleave
File size : 1.21 GiB
Duration : 1h 18mn
Overall bit rate : 2 202 Kbps
Writing application : VirtualDubMod 1.5.10.2 (build 2540/release)
Writing library : VirtualDubMod build 2540/release
Video #0
ID : 0
Format : MPEG-4 Visual
Format profile : Advanced [email protected]
Format settings, BVOP : 3
Format settings, QPel : No
Format settings, GMC : No warppoints
Format settings, Matrix : Default (MPEG)
Codec ID : XVID
Codec ID/Hint : XviD
Duration : 1h 18mn
Bit rate : 2 000 Kbps
Width : 720 pixels
Height : 432 pixels
Display aspect ratio : 1.667
Frame rate : 25.000 fps
Color space : YUV
Chroma subsampling : 4:2:0
Bit depth : 8 bits
Scan type : Progressive
Compression mode : Lossy
Bits/(Pixel*Frame) : 0.257
Stream size : 1.10 GiB (91%)
Writing library : XviD 1.2.0.dev47 (UTC 2006-11-01)
Audio #1
ID : 1
Format : AC-3
Format/Info : Audio Coding 3
Mode extension : CM (complete main)
Codec ID : 2000
Duration : 1h 18mn
Bit rate mode : Constant
Bit rate : 192 Kbps
Channel(s) : 2 channels
Channel positions : Front: L R
Sampling rate : 48.0 KHz
Bit depth : 16 bits
Compression mode : Lossy
Stream size : 108 MiB (9%)
Alignment : Split accross interleaves
Interleave, duration : 40 ms (1.00 video frame)
Interleave, preload duration : 500 ms
Источник/Качество: DVDRip
Формат: AVI
Видео кодек: XviD
Аудио кодек: AC3
Видео: 720x432 (1.67:1) 25 fps XviD build 47 1999 kbps avg 0.26 bit/pixel
Аудио: 48 kHz AC3 Dolby Digital 2/0 (L,R) ch 192 kbps
Download / Скачать

Хотите скачать бесплатно? Зарегистрируйтесь на сайте (ссылка на регистрацию). Pirat.ca - самый быстрый торрент трекер в рунете!

Как скачивать  ·   Что такое торрент  ·   Рейтинг и ограничения

Пост 07-Ноя-2011 22:08 (спустя 2 часа 30 минут)

Топик был перенесен из форума Наше Кино в форум Российские фильмы

Skinwalker
 

Luzhok

Легенда

Пост 09-Ноя-2011 10:08 (спустя 1 день 14 часов)

[Q] 

leha1975,
спасибо
[Профиль]  [ЛС] 

Леоперд

Лоцман

Пост 19-Ноя-2011 20:35 (спустя 10 дней)

[Q] 

спасибо надеюсь понравится.
[Профиль]  [ЛС] 

CHARLI2236

1089

Пост 26-Ноя-2011 18:19 (спустя 6 дней)

[Q] 

спасибо

_________________
[Профиль]  [ЛС] 

hohol541

Корсар

Пост 27-Ноя-2011 09:33 (спустя 15 часов)

[Q] 

спасибо
[Профиль]  [ЛС] 

sppi9

Морской Волк

Пост 15-Дек-2011 13:20 (спустя 18 дней)

[Q] 

спасибо
[Профиль]  [ЛС] 

KIRST

Корсар

Пост 21-Янв-2012 09:07 (спустя 1 месяц 5 дней)

[Q] 

Посмотрим.
[Профиль]  [ЛС] 

dinaryabovy2004

Шкипер

Пост 31-Янв-2012 16:17 (спустя 10 дней)

[Q] 

Подскажите фильм похож на тайский вояж или уже просто тираж?
[Профиль]  [ЛС] 

rig1

Лоцман

Пост 28-Окт-2012 22:39 (спустя 8 месяцев 28 дней)

[Q] 

[Профиль]  [ЛС] 

hohol541

Корсар

Пост 28-Дек-2012 20:18 (спустя 1 месяц 30 дней)

[Q] 

Спасибо
[Профиль]  [ЛС] 

UncleFather

Легенда

Пост 24-Мар-2013 20:50 (спустя 2 месяца 27 дней)

[Q] 


_________________
Одни боялись Пью, другие - Билли Бонса, а меня... меня боялся сам Флинт
[Профиль]  [ЛС] 
Показать сообщения:    
Ответить на тему

Текущее время: Сегодня 18:30

Часовой пояс: GMT + 4



Вы не можете начинать темы
Вы не можете отвечать на сообщения
Вы не можете редактировать свои сообщения
Вы не можете удалять свои сообщения
Вы не можете голосовать в опросах
Вы не можете прикреплять файлы к сообщениям
Вы не можете скачивать файлы

▼ Вниз