ML
     
  Уважаемый Гость!
Вы можете поддержать проект и зарегистрироваться у наших партнеров - онлайн-стратегия MyLands. При регистрации в игре Вы получите код, который сможете активировать после регистрации на pirat.ca и получить 1000 дублонов.

Ваш код:
2fd4e750dd89cae3a36ea360f2b345ccfeb562d3
 
     

Брестская крепость (Александр Котт) [2010 г., Военная драма, DVDRip]

Ответить на тему
 
Автор
Сообщение

Пост 07-Ноя-2011 20:36

[Q] 

cergo

Гроза морей

Брестская крепость Год выпуска: 2010
Жанр: Военная драма
Продолжительность: 02:13:02
Режиссер: Александр Котт
В ролях: Евгений Цыганов, Андрей Мерзликин, Павел Деревянко, Александр Коршунов, Юрий Анпилогов, Кирилл Болтаев, Анатолий Кот, Илья Мозговой, Яна Есипович, Дмитрий Куличков
Описание: Фильм рассказывает о героической обороне Брестской крепости, которая приняла на себя первый удар немецко-фашистских захватчиков 22 июня 1941 года. С документальной точностью описываются события, происходившие в первые дни обороны. Фильм рассказывает о главных трёх очагах сопротивления, возглавляемых командиром полка Петром Гавриловым, комиссаром Ефимом Фоминым и начальником 9-й погранзаставы Андреем Кижеватовым.
Источник/Качество: DVDRip
Формат: AVI
Видео кодек: XviD
Аудио кодек: AC3
Видео: 720x304 (2.37:1), 25 fps, XviD build 47 ~1760 kbps avg, 0.32 bit/pixel
Аудио: 48 kHz, AC3 Dolby Digital, 3/2 (L,C,R,l,r) + LFE ch, ~448 kbps
Формат : AVI
Формат/Информация : Audio Video Interleave
Профиль формата : OpenDML
Размер файла : 2,06 Гбайт
Продолжительность : 2 ч. 13 м.
Общий поток : 2214 Кбит/сек
Программа кодирования : VirtualDubMod 1.5.10.2 (build 2540/release)
Библиотека кодирования : VirtualDubMod build 2540/release
Видео
Идентификатор : 0
Формат : MPEG-4 Visual
Профиль формата : Advanced [email protected]
Параметр BVOP формата : 3
Параметр QPel формата : Нет
Параметр GMC формата : Без точки перехода
Параметр матрицы формата : Default (H.263)
Идентификатор кодека : XVID
Идентификатор кодека/Подсказка : XviD
Продолжительность : 2 ч. 13 м.
Битрейт : 1755 Кбит/сек
Ширина : 720 пикселей
Высота : 304 пикселя
Соотношение сторон : 2,35:1
Частота кадров : 25,000 кадров/сек
Цветовое пространство : YUV
Субдискретизация насыщенности : 4:2:0
Битовая глубина : 8 бит
Тип развёртки : Прогрессивная
Метод сжатия : С потерями
Бит/(Пиксели*Кадры) : 0.321
Размер потока : 1,63 Гбайт (79%)
Библиотека кодирования : XviD 1.2.0.dev47 (UTC 2006-11-01)
Аудио
Идентификатор : 1
Формат : AC-3
Формат/Информация : Audio Coding 3
Расширение режима : CM (complete main)
Идентификатор кодека : 2000
Продолжительность : 2 ч. 12 м.
Вид битрейта : Постоянный
Битрейт : 448 Кбит/сек
Каналы : 6 каналов
Расположение каналов : Front: L C R, Side: L R, LFE
Частота : 48,0 КГц
Битовая глубина : 16 бит
Метод сжатия : С потерями
Размер потока : 425 Мбайт (20%)
Выравнивание : Разделение по промежуткам
Продолжительность промежутка : 40 мс. (1,00 видеокадр)
Время предзагрузки промежутка : 500 мс.
<<<Скриншоты>>>--
Download / Скачать

Хотите скачать бесплатно? Зарегистрируйтесь на сайте (ссылка на регистрацию). Pirat.ca - самый быстрый торрент трекер в рунете!

Как скачивать  ·   Что такое торрент  ·   Рейтинг и ограничения



Последний раз редактировалось: cergo (2012-05-03 18:21), всего редактировалось 8 раз(а)

Пост 07-Ноя-2011 22:35 (спустя 1 час 58 минут)

Топик был перенесен из форума Наше Кино в форум Российские фильмы

Skinwalker
 

VaNo192

Корсар

Пост 23-Янв-2012 07:17 (спустя 2 месяца 15 дней)

[Q] 

Хороший фильм, наконец-то про войну, за последнее время, что-то стоящее сняли...
[Профиль]  [ЛС] 

U-858

Флибустьер

Пост 28-Янв-2012 22:47 (спустя 5 дней)

[Q] 

СПАСИБО!!!!!!!!!!!!!11
[Профиль]  [ЛС] 

cergo ®

Гроза морей

20033

Пост 28-Янв-2012 23:40 (спустя 53 минуты)

[Q] 

СПАСИБО!!!!!!!!!!!!!11
пожалуйста. ad
[Профиль]  [ЛС] 

Antoshqa3

Морской Волк

Пост 03-Май-2012 14:25 (спустя 3 месяца 5 дней)

[Q] 

СПАСИБО!!!
[Профиль]  [ЛС] 

cergo ®

Гроза морей

20033

Пост 03-Май-2012 18:15 (спустя 3 часа)

[Q] 

СПАСИБО!!!
aa aa aa
[Профиль]  [ЛС] 

Darlok.

Морской Волк

29

Пост 26-Янв-2013 11:57 (спустя 8 месяцев 22 дня)

[Q] 

фильм шикарнейший! огромное спасибо!
[Профиль]  [ЛС] 

Billy Bones

Шкипер

Пост 13-Фев-2013 15:25 (спустя 18 дней)

[Q] 

фильм хороший
[Профиль]  [ЛС] 

Sergi4

Гроза морей

Пост 18-Фев-2013 13:26 (спустя 4 дня)

[Q] 

[Профиль]  [ЛС] 

was_born_to_be_a_cat

Штурман

Пост 30-Май-2013 21:10 (спустя 3 месяца 12 дней)

[Q] 

спасибо!
[Профиль]  [ЛС] 

cergo ®

Гроза морей

20033

Пост 30-Май-2013 21:50 (спустя 39 минут)

[Q] 

Darlok., Billy Bones, Sergi4, was_born_to_be_a_cat, aa az
[Профиль]  [ЛС] 

alex denver71

Флибустьер

Пост 22-Янв-2016 16:16 (спустя 2 года 7 месяцев)

[Q] 

Автору респект!!! за данный релиз!!! Фильм понравился:
[Профиль]  [ЛС] 
Показать сообщения:    
Ответить на тему

Текущее время: Сегодня 14:12

Часовой пояс: GMT + 4



Вы не можете начинать темы
Вы не можете отвечать на сообщения
Вы не можете редактировать свои сообщения
Вы не можете удалять свои сообщения
Вы не можете голосовать в опросах
Вы не можете прикреплять файлы к сообщениям
Вы не можете скачивать файлы

▼ Вниз