ML
     
  Уважаемый Гость!
Вы можете поддержать проект и зарегистрироваться у наших партнеров - онлайн-стратегия MyLands. При регистрации в игре Вы получите код, который сможете активировать после регистрации на pirat.ca и получить 1000 дублонов.

Ваш код:
ec3b26eefbcdc72e08e9fd33c6846bb2ca10f8b1
 
     

Суперменеджер, или Мотыга судьбы «Офисы - хоббитам!» (Богдан Дробязко) [2011 г., фэнтези, комедия, приключения, DVDRip]

Ответить на тему
 
Автор
Сообщение

Пост 07-Ноя-2011 20:52

[Q] 

dikson8

Лоцман

Суперменеджер, или Мотыга судьбы «Офисы - хоббитам!»
Год выпуска: 2011
Жанр: фэнтези, комедия, приключения
Продолжительность: 01:19:19
Режиссер: Богдан Дробязко
В ролях: Юрий Чурсин, Сергей Медведев, Екатерина Вилкова, Иван Охлобыстин, Александр Ильин (младший), Екатерина Астахова, Ольга Дибцева, Алексей Маклаков, Александр Пожаров, Петр Федоров, Денис Кулютников, Сергей Терещенко, Константин Милованов, Александр Наумов
Описание: Давным-давно в одном большом городе, когда кризис вроде бы миновал, жили два брата. Младший Никита был самым обыкновенным… Хоббитом, капитаном арбалетчиков из Клана Лысых Холмов, любил пиво, ролевые игры, эльфийский лист, девушку Настю, романы про Средиземье и ничего не делать. Ну, а старший брат Егор служил топ-менеджером большой нефтяной компании. Но у любого менеджера бывает белая полоса, а бывает… увольнение.
Доп. информация: В один прекрасный день Егор остался без работы, без офиса и без девушки. И тогда решил Егор обратиться за помощью к своему младшему брату, правда, у того тоже начались большие проблемы. Пропала мотыга Великого Торина — друга и соратника Никиты…
Источник/Качество: DVDRip
Формат: AVI
Видео кодек: XviD
Аудио кодек: AC3
Видео: 720x400 (16:9), 25.000 fps, XviD ~2010 kbps avg, 0.279 bit/pixel
Аудио: 48 kHz, AC3 Dolby Digital, 3/2 (L,C,R,l,r) + LFE ch, ~448 kbps
Общее
Полное имя : G:\pirat.ca\Supermenedzher.2011.O.DVDRip.avi
Формат : AVI
Формат/Информация : Audio Video Interleave
Размер файла : 1,37 Гбайт
Продолжительность : 1 ч. 19 м.
Общий поток : 2468 Кбит/сек
Программа кодирования : VirtualDubMod 1.5.4.1 (build 2178/release)
Библиотека кодирования : VirtualDubMod build 2178/release
Видео
Идентификатор : 0
Формат : MPEG-4 Visual
Профиль формата : Advanced [email protected]
Параметр BVOP формата : 2
Параметр QPel формата : Нет
Параметр GMC формата : Без точки перехода
Параметр матрицы формата : Выборочная
Идентификатор кодека : XVID
Идентификатор кодека/Подсказка : XviD
Продолжительность : 1 ч. 19 м.
Битрейт : 2010 Кбит/сек
Ширина : 720 пикс.
Высота : 400 пикс.
Соотношение сторон : 16:9
Частота кадров : 25,000 кадр/сек
Цветовое пространство : YUV
Подвыборка цветности : 4:2:0
Битовая глубина : 8 бит
Тип развёртки : Прогрессивная
Метод сжатия : С потерями
Бит/(Пиксели*Кадры) : 0.279
Размер потока : 1,11 Гбайт (81%)
Библиотека кодирования : XviD 58
Аудио
Идентификатор : 1
Формат : AC-3
Формат/Информация : Audio Coding 3
Расширение режима : CM (complete main)
Идентификатор кодека : 2000
Продолжительность : 1 ч. 19 м.
Вид битрейта : Постоянный
Битрейт : 448 Кбит/сек
Канал(ы) : 6 канала(ов)
Расположение каналов : Front: L C R, Side: L R, LFE
Частота : 48,0 КГц
Битовая глубина : 16 бит
Метод сжатия : С потерями
Задержка видео : 24 мс.
Размер потока : 254 Мбайт (18%)
Выравнивание : Разделение по промежуткам
Продолжительность промежутка : 40 мс. (1,00 видеокадр)
Время предзагрузки промежутка : 500 ms


Download / Скачать

Хотите скачать бесплатно? Зарегистрируйтесь на сайте (ссылка на регистрацию). Pirat.ca - самый быстрый торрент трекер в рунете!

Как скачивать  ·   Что такое торрент  ·   Рейтинг и ограничения



Последний раз редактировалось: dikson8 (2011-11-08 04:38), всего редактировалось 1 раз

Пост 08-Ноя-2011 09:44 (спустя 12 часов)

Топик был перенесен из форума Наше Кино в форум Российские фильмы

Skinwalker
 

the_lame

Корсар

Пост 20-Янв-2012 09:41 (спустя 2 месяца 12 дней)

[Q] 

Бред конечно, но на раз пойдет
[Профиль]  [ЛС] 

the_lame

Корсар

Пост 20-Янв-2012 09:41 (спустя 0 секунд)

[Q] 

Бред конечно, но на раз пойдет
[Профиль]  [ЛС] 

KIRST

Корсар

Пост 20-Янв-2012 20:41 (спустя 10 часов)

[Q] 

Спасибо,посмотрим.
[Профиль]  [ЛС] 

KOS1612

Корсар

Пост 23-Янв-2012 09:35 (спустя 2 дня 12 часов)

[Q] 

Спасибо!
[Профиль]  [ЛС] 

lis777

Корсар

Пост 23-Янв-2012 16:37 (спустя 7 часов)

[Q] 

спасибо!посмотрим на досуге
[Профиль]  [ЛС] 

raul kurochka

Корсар

Пост 08-Фев-2012 15:07 (спустя 15 дней)

[Q] 

БРЕД БРЕДОВОГО БРЕДОРА

_________________
...ЧО ТАКОЙ СЕРЬЕЗНЫЙ???
[Профиль]  [ЛС] 

JayRiddler

Шкипер

Пост 11-Фев-2012 23:29 (спустя 3 дня)

[Q] 

Ув. автор dikson8, глубокомысленная фразочка «Офисы - хоббитам!» - это слоган фильма. Нафиг ты слоган к названию прилепил?
Я фильм не смотрел ещё. Стрёмно чё-то. Боюсь кровоизлиния в мозг и истеричного плача ночью в подушку после просмотра. У меня только один вопрос — ЭТО есть пародия?

_________________
[Профиль]  [ЛС] 

agamemnen

Шкипер

Пост 12-Фев-2012 01:06 (спустя 1 час 37 минут)

[Q] 

[Профиль]  [ЛС] 

JayRiddler

Шкипер

Пост 05-Мар-2012 20:11 (спустя 22 дня)

[Q] 

Хм...
Отвечу сам себе.
У меня только один вопрос — ЭТО есть пародия?
Пародия на попытку снять вменяемое кино, разве что
Вообще фильм не особо напрягает. Да и длится не долго. Смотреть, наверное, всё же можно... но осторожно. Выкинув из головы услужливо проведённые памятью параллели с другими удачными комедийными вариациями на тему жизни неудачника. Супер...менеджер... млять, надо же было до такого названия додуматься. Да и Мотыга судьбы тащит ag
В роли кэпа всех шизонутых задротов в ролевые игры с скисшими мозгами сам Иван Охлобыстин, кстати. Для меня он не икона актёрского мастерства, но персона видимая в настоящее время, всё-таки.
Алексей Маклаков (он же прапорщик Шматко) тоже в рядах шизов присутствует.
Операторская работа приятно удивила. Она, действительно, качественно проделанная.
Ребята, не смотрите такое трезвыми. Только в связке с рубленым эльфийким листом. Это аккуратная отсылка к фильму, если что. У меня не припадок. Ну, или лучше не смотрите вовсе.
P.S. На прошлой недели смотрел «Груз 200» Балабанова производства кинокомпании СТВ. Она же и «Суперменеджера» (название ппц bz ) выпустила. Когда показалась заставка (сидящая на какой-то штуке девочка, кажется) у меня выступил холодный пот, вспомни я ЭТО.

_________________
[Профиль]  [ЛС] 

brokoz

Пост 13-Май-2012 13:41 (спустя 2 месяца 7 дней)

[Q] 

Хороший фильм мне очень понравилось было приятно посмотреть
_________________
[Профиль]  [ЛС] 

hohol541

Корсар

Пост 29-Дек-2012 10:15 (спустя 7 месяцев 15 дней)

[Q] 

Это так шибко умные отдыхают от реалий жизни или просто стёб?
[Профиль]  [ЛС] 

lavey

Шкипер

6

Пост 25-Янв-2014 20:45 (спустя 1 год)

[Q] 

Хе-хе, позитивненький фильм. На любителя Лови бочку

_________________
Homo homini lupus est
[Профиль]  [ЛС] 

a s d

Шкипер

1

Пост 09-Май-2014 00:37 (спустя 3 месяца 14 дней)

[Q] 

отличный фильмец-один из немногих российских фильмов!!!охлабыстин хорош!!!!
[Профиль]  [ЛС] 
Показать сообщения:    
Ответить на тему

Текущее время: Сегодня 03:48

Часовой пояс: GMT + 4



Вы не можете начинать темы
Вы не можете отвечать на сообщения
Вы не можете редактировать свои сообщения
Вы не можете удалять свои сообщения
Вы не можете голосовать в опросах
Вы не можете прикреплять файлы к сообщениям
Вы не можете скачивать файлы

▼ Вниз