ML
     
  Уважаемый Гость!
Вы можете поддержать проект и зарегистрироваться у наших партнеров - онлайн-стратегия MyLands. При регистрации в игре Вы получите код, который сможете активировать после регистрации на pirat.ca и получить 1000 дублонов.

Ваш код:
59354507ba913a0948d1a8f2e30f2e04c4cd7b9b
 
     

Грозовые ворота (4 серии) (Андрей Малюков) [2006 г., Военный фильм, драма, DVDRip]

Ответить на тему
 
Автор
Сообщение

Пост 07-Ноя-2011 21:14

[Q] 

K-0-t

Морской Волк

Грозовые ворота (4 серии)
Год выпуска: 2006г.
Страна: Россия
Жанр: Военный фильм, драма
Продолжительность: 4 х ~52 мин.
Режиссер: Андрей Малюков
В ролях:
Михаил Пореченков — Валерий Егоров, майор, командир группы ГРУ ГШ МО РФ.
Вячеслав Разбегаев — Мурад «Шах», бывший генерал ЧРИ, друг Егорова
Анатолий Пашинин — Александр Владимирович Доронин, старший лейтенант, командир сводной мотострелковой роты
Андрей Краско — полковник Галкин
Иван Жидков — рядовой Константин Ветров, стрелок.
Евгений Потапенко — рядовой Николай Горшков, пулеметчик.
Михаил Ефремов — капитан Ланевский, командир взвода БМД.
Даниил Страхов — старший лейтенант Панкратов, комвзвода
Марина Могилевская — мама К.Ветрова
Виктория Толстоганова — Валя, жена майора Егорова.
Анастасия Цветаева — Катя
Андрей Зибров — подполковник Гаврилов, начальник штаба
Борис Щербаков — генерал Терек
Екатерина Климова — Алина
Елизавета Боярская — Саша
Раиса Рязанова — хозяйка квартиры
Владимир Турчинский — контрразведчик
Алексей Шевченков — Петраков, боец разведгруппы ГРУ
Александр Лойе — сержант Гольдин, пулеметчик
Илья Бледный — лейтенант Лузгин
Сахат Дурсунов — старший прапорщик Мамедов
Владимир Епископосян — араб Хабиб
Анатолий Гущин — старший лейтенант Кокора
Максим Зыков — рядовой Смагин
Карен Бадалов — бандит в костюме Деда Мороза
Никита Емшанов — рядовой Коркин
Алексей Солончев — связной
Александр Фисенко — капитан Голиков
Описание: Рота старшего лейтенанта Александра Доронина, в которой служат молодые солдаты - "мажор" Константин Ветров и деревенский парень Николай Горшков, командирована в Чечню. Командир полка полковник Галкин поручает Доронину оборону перевала «Грозовые ворота». К роте Доронина прикомандировывают группу спецназа ГРУ под командованием майора Егорова, у которого несколько лет назад от рук террористов погибли его жена и сын. Вскоре по прибытии на перевал, Егоров знакомит Доронина со своим доверенным лицом Шахом, бывшим чеченским боевиком. У Шаха имеется достоверная информация, что к перевалу стягиваются крупные силы боевиков. Они готовятся нанести роте сокрушительный удар.
Доп. информация:
«Грозовы́е воро́та» — российский многосерийный фильм 2006 года, снятый по мотивам романа Александра Тамоникова «Рота уходит в небо» (после премьеры фильма несколько раз переиздавался под названием «Грозовые ворота»). По признанию автора, все совпадения сюжета с ходом реального боя на высоте 776 в 2000 году — случайны, так как бой произошёл уже после того, как большая часть романа была написана.
Рабочее название фильма было «6 рота». Но так как в это же время шли съёмки фильма «9 рота» Фёдора Бондарчука, название фильма пришлось сменить.
Источник/Качество: DVDRip
Формат: AVI
Видео кодек: Другой MPEG4
Аудио кодек: MPEG Audio
Видео: 720x576 (1.25:1), 24 fps, FMP4, 1500 kbps avg, 0.15 bit/pixel
Аудио: 24 kHz, Microsoft MPEG, 2 ch, 112.00 kbps avg
General
Complete name : E:\Фильмы\Художественные\Отечественные фильмы\Грозовые ворота\Грозовые ворота_1.avi
Format : AVI
Format/Info : Audio Video Interleave
File size : 602 MiB
Duration : 51mn 54s
Overall bit rate : 1 621 Kbps
Video
ID : 0
Format : MPEG-4 Visual
Format profile : [email protected]
Format settings, BVOP : No
Format settings, QPel : No
Format settings, GMC : No warppoints
Format settings, Matrix : Default (H.263)
Codec ID : FMP4
Duration : 51mn 54s
Bit rate : 1 501 Kbps
Width : 720 pixels
Height : 576 pixels
Display aspect ratio : 5:4
Frame rate : 24.000 fps
Standard : PAL
Resolution : 24 bits
Colorimetry : 4:2:0
Scan type : Progressive
Bits/(Pixel*Frame) : 0.151
Stream size : 557 MiB (93%)
Writing library : FFmpegCVSb4759MobileHackerz032
Audio
ID : 1
Format : MPEG Audio
Format version : Version 2
Format profile : Layer 2
Codec ID : 50
Duration : 51mn 53s
Bit rate mode : Constant
Bit rate : 112 Kbps
Channel(s) : 2 channels
Sampling rate : 24.0 KHz
Resolution : 16 bits
Stream size : 41.6 MiB (7%)
Alignment : Aligned on interleaves
Interleave, duration : 48 ms (1.15 video frame)
Download / Скачать

Хотите скачать бесплатно? Зарегистрируйтесь на сайте (ссылка на регистрацию). Pirat.ca - самый быстрый торрент трекер в рунете!

Как скачивать  ·   Что такое торрент  ·   Рейтинг и ограничения

Пост 07-Ноя-2011 22:14 (спустя 59 минут)

Топик был перенесен из форума Наше Кино в форум Российские фильмы

Skinwalker
 

ДжоNNи

Штурман

Пост 03-Дек-2011 07:54 (спустя 25 дней)

[Q] 

Смотреть обязательно!!!
[Профиль]  [ЛС] 

KIRST

Корсар

Пост 20-Янв-2012 22:45 (спустя 1 месяц 17 дней)

[Q] 

Хороший фильм, спасибо.
[Профиль]  [ЛС] 

Фисташка

Пост 15-Авг-2012 12:05 (спустя 6 месяцев 25 дней)

[Q] 

спасибки ! очень хороший фильм.
[Профиль]  [ЛС] 

alextaganovich

Морской Волк

Пост 11-Ноя-2012 09:15 (спустя 2 месяца 26 дней)

[Q] 

[Профиль]  [ЛС] 

Димарик82

Корсар

725

Пост 14-Ноя-2012 23:22 (спустя 3 дня)

[Q] 

[Профиль]  [ЛС] 

Dominik

Морской Волк

68

Пост 18-Апр-2014 08:29 (спустя 1 год 5 месяцев)

[Q] 

Лови бочку ОТлично!!!!

_________________
Раньше удивляло хамство, теперь удивляет вежливость!
[Профиль]  [ЛС] 
Показать сообщения:    
Ответить на тему

Текущее время: Сегодня 16:08

Часовой пояс: GMT + 4



Вы не можете начинать темы
Вы не можете отвечать на сообщения
Вы не можете редактировать свои сообщения
Вы не можете удалять свои сообщения
Вы не можете голосовать в опросах
Вы не можете прикреплять файлы к сообщениям
Вы не можете скачивать файлы

▼ Вниз