ML
     
  Уважаемый Гость!
Вы можете поддержать проект и зарегистрироваться у наших партнеров - онлайн-стратегия MyLands. При регистрации в игре Вы получите код, который сможете активировать после регистрации на pirat.ca и получить 1000 дублонов.

Ваш код:
4855957e17f50c5c1236a0f8c4492b2b0bba00a0
 
     

Генерал (Игорь Николаев) [1992 г., военный фильм, драма, DVDRip]

Ответить на тему
 
Автор
Сообщение

Пост 07-Ноя-2011 22:35

[Q] 

K-0-t

Морской Волк

Генерал
Год выпуска: 1992г.
Страна: Россия (киностудия им. М. Горького)
Жанр: военный фильм, драма
Продолжительность: 01:37:25
Режиссер: Игорь Николаев
Сценарий: Игорь Николаев, Василий Соловьёв
В ролях:
Владимир Гостюхин — генерал Горбатов
Ирина Акулова — Светлана Горбатова, жена
Алексей Жарков — Мехлис
Александр Хочинский — Борис Пастернак
Владимир Меньшов — маршал Жуков
Игорь Шаповалов — маршал Тимошенко
Описание: Судьба главного героя фильма очень похожа на историю известного советского военачальника Александра Горбатова, который жил в 1891 по 1973 годы.
В биографии Горбатова, как и у очень большого количества людей живших в то время, было много драматических событий, много детективных поворотов, острых ситуаций - армия, репрессии, ссылка в концентрационные лагеря, Великая Отечественная война.
Но, несмотря на все повороты судьбы, генерал сумел сохранить честь и достоинство офицера.
Источник/Качество: DVDRip
Формат: AVI
Видео кодек: DivX
Аудио кодек: AC3
Видео: 688x432 (1.59:1), 25 fps, DivX Codec 6.6.1, 1807 kbps avg, 0.24 bit/pixel
Аудио: 48 kHz, AC3 Dolby Digital, 2/0 (L,R) ch, 192 kbps
General
Complete name : E:\Фильмы\Художественные\Отечественные фильмы\Великая Отечественная война\Генерал.avi
Format : AVI
Format/Info : Audio Video Interleave
File size : 1.37 GiB
Duration : 1h 37mn
Overall bit rate : 2 009 Kbps
Writing application : FairUse Wizard - http://fairusewizard.com
Writing library : The best and REALLY easy backup tool
Video
ID : 0
Format : MPEG-4 Visual
Format settings, BVOP : Yes
Format settings, QPel : No
Format settings, GMC : No warppoints
Format settings, Matrix : Default (H.263)
Muxing mode : Packed bitstream
Codec ID : DX50
Codec ID/Hint : DivX 5
Duration : 1h 37mn
Bit rate : 1 808 Kbps
Width : 688 pixels
Height : 432 pixels
Display aspect ratio : 1.593
Frame rate : 25.000 fps
Resolution : 24 bits
Colorimetry : 4:2:0
Scan type : Progressive
Bits/(Pixel*Frame) : 0.243
Stream size : 1.23 GiB (90%)
Writing library : DivX 6.6.1.4
Audio
ID : 1
Format : AC-3
Format/Info : Audio Coding 3
Codec ID : 2000
Duration : 1h 37mn
Bit rate mode : Constant
Bit rate : 192 Kbps
Channel(s) : 2 channels
Channel positions : L R
Sampling rate : 48.0 KHz
Stream size : 134 MiB (10%)
Alignment : Split accross interleaves
Interleave, duration : 40 ms (1.00 video frame)
Interleave, preload duration : 500 ms
Download / Скачать

Хотите скачать бесплатно? Зарегистрируйтесь на сайте (ссылка на регистрацию). Pirat.ca - самый быстрый торрент трекер в рунете!

Как скачивать  ·   Что такое торрент  ·   Рейтинг и ограничения

Пост 07-Ноя-2011 22:38 (спустя 2 минуты)

Топик был перенесен из форума Советское кино в форум Российские фильмы

Skinwalker
 

Су-34

Гроза морей

10393

Пост 16-Дек-2012 17:20 (спустя 1 год 1 месяц)

[Q] 

А что со скринами то???
[Профиль]  [ЛС] 

CHARLI2236

1098

Пост 24-Дек-2013 17:59 (спустя 1 год)

[Q] 

подключусь AntiZip

_________________
[Профиль]  [ЛС] 

Боцман

1291

Пост 24-Дек-2013 18:05 (спустя 5 минут)

[Q] 

Качаем все... я не долго постою поэтому не сваливаем с раздачи...
Добавлено спустя 1 минута 1 секунда:
466664подключусь AntiZip
Спасибо брат.....

_________________
не верь не бойся не проси не плачь...
[Профиль]  [ЛС] 

Datchanin

Корсар

36

Пост 18-Май-2014 18:07 (спустя 4 месяца 25 дней)

[Q] 

Спасибо! Надо посмотреть!

_________________
[Профиль]  [ЛС] 
Показать сообщения:    
Ответить на тему

Текущее время: Сегодня 06:11

Часовой пояс: GMT + 4



Вы не можете начинать темы
Вы не можете отвечать на сообщения
Вы не можете редактировать свои сообщения
Вы не можете удалять свои сообщения
Вы не можете голосовать в опросах
Вы не можете прикреплять файлы к сообщениям
Вы не можете скачивать файлы

▼ Вниз