ML
     
  Уважаемый Гость!
Вы можете поддержать проект и зарегистрироваться у наших партнеров - онлайн-стратегия MyLands. При регистрации в игре Вы получите код, который сможете активировать после регистрации на pirat.ca и получить 1000 дублонов.

Ваш код:
21acd5966619d49ad0b90c3305467b4646cc11a8
 
     

Неадекватные люди (Роман Каримов) [2010 г., мелодрама, комедия, DVDRip-AVC]

Ответить на тему
 
Автор
Сообщение

Пост 08-Ноя-2011 01:02

[Q] 

zyyx

--Неадекватные люди
«Биться головой о стенку гораздо веселее, когда знаешь, что за ней скрывается родственная душа.»
-- Год выпуска: 2010
Российская премьера: 13 января 2011, «Парадиз»
Дата выхода DVD: 10 февраля 2011, «Парадиз Видео»
Дата выхода Blu-Ray: 10 февраля 2011, «Парадиз Видео»
Страна: Россия
Жанр: мелодрама, комедия
Продолжительность: 01:41:55
Перевод: Оригинал [Лицензия]
Режиссер: Роман Каримов
В ролях: Ингрид Олеринская, Назар Ас-Самаррай, Артем Душкин, Полина Иосилевич, Илья Любимов, Юлия Такшина, Влад Топалов, Анастасия Федоркова, Евгений Цыганов, Марина Зайцева
Описание: Тихий и воспитанный Виталик пытается начать жизнь с нуля в новом городе. Но странным образом ему на пути попадаются одни сумасшедшие. Его соседкой по лестничной площадке оказывается взбалмошная Кристина, стремящаяся переделать его из задрота в нормального мужика, на новой работе атакует похотливая начальница и даже психолог, помогающий ему совладать со всем этим — и тот оказывается садо-мазохистом. Виталик кажется единственным адекватным человеком здесь. Но так ли это на самом деле?-Сэмпл | КиноПоиск-Источник/Качество: DVDRip-AVC
Формат: MKV
Видео кодек: H.26x
Аудио кодек: AC3
Видео: 1024x576, 25,000 кадров/сек, 1659 Кбит/сек
Аудио: 48,0 КГц, 6 каналов, 384 Кбит/сек
Общее
Уникальный идентификатор : 193954457413575337184777086046015299700 (0x91EA450D8CFF5DFC8EF3E7BDCC27A074)
Полное имя : D:\pirat.ca\Neadekvatnye.ljudi.2010.DVDRip.x264.mkv
Формат : Matroska
Версия формата : Version 2
Размер файла : 1,46 Гбайт
Продолжительность : 1 ч. 41 м.
Общий поток : 2044 Кбит/сек
Название фильма : Неадекватные люди (2010) Release by Vaippp
Дата кодирования : UTC 2011-01-31 19:54:01
Программа кодирования : mkvmerge v4.4.0 ('Die Wiederkehr') сборка от Oct 31 2010 21:52:48
Библиотека кодирования : libebml v1.0.0 + libmatroska v1.0.0
Видео
Идентификатор : 1
Формат : AVC
Формат/Информация : Advanced Video Codec
Профиль формата : [email protected]
Параметр CABAC формата : Да
Параметр ReFrames формата : 8 кадров
Идентификатор кодека : V_MPEG4/ISO/AVC
Продолжительность : 1 ч. 41 м.
Битрейт : 1659 Кбит/сек
Ширина : 720 пикселей
Высота : 576 пикселей
Соотношение сторон : 16:9
Частота кадров : 25,000 кадров/сек
Стандарт вещания : PAL
Цветовое пространство : YUV
Субдискретизация насыщенности : 4:2:0
Битовая глубина : 8 бит
Тип развёртки : Прогрессивная
Бит/(Пиксели*Кадры) : 0.160
Размер потока : 1,15 Гбайт (79%)
Заголовок : DVDRip by Vaippp
Библиотека кодирования : x264 core 112 r1867 22bfd31
Настройки программы : cabac=1 / ref=8 / deblock=1:-2:-1 / analyse=0x3:0x113 / me=umh / subme=9 / psy=1 / psy_rd=1.00:0.00 / mixed_ref=1 / me_range=32 / chroma_me=1 / trellis=1 / 8x8dct=1 / cqm=0 / deadzone=21,11 / fast_pskip=0 / chroma_qp_offset=-2 / threads=4 / sliced_threads=0 / nr=0 / decimate=1 / interlaced=0 / constrained_intra=0 / bframes=7 / b_pyramid=2 / b_adapt=2 / b_bias=0 / direct=3 / weightb=1 / open_gop=0 / weightp=2 / keyint=250 / keyint_min=25 / scenecut=40 / intra_refresh=0 / rc_lookahead=60 / rc=2pass / mbtree=1 / bitrate=1659 / ratetol=1.0 / qcomp=0.60 / qpmin=10 / qpmax=51 / qpstep=4 / cplxblur=20.0 / qblur=0.5 / ip_ratio=1.40 / aq=1:1.00
Язык : English
Аудио
Идентификатор : 2
Формат : AC-3
Формат/Информация : Audio Coding 3
Расширение режима : CM (complete main)
Идентификатор кодека : A_AC3
Продолжительность : 1 ч. 41 м.
Вид битрейта : Постоянный
Битрейт : 384 Кбит/сек
Каналы : 6 каналов
Расположение каналов : Front: L C R, Side: L R, LFE
Частота : 48,0 КГц
Битовая глубина : 16 бит
Метод сжатия : С потерями
Размер потока : 280 Мбайт (19%)
Заголовок : Оригинал R5
Язык : Russian


Download / Скачать

Хотите скачать бесплатно? Зарегистрируйтесь на сайте (ссылка на регистрацию). Pirat.ca - самый быстрый торрент трекер в рунете!

Как скачивать  ·   Что такое торрент  ·   Рейтинг и ограничения

Пост 08-Ноя-2011 02:26 (спустя 1 час 23 минуты)

Топик был перенесен из форума Наше Кино в форум Новинки (HD|DVD|BD|TV|SAT|PDTV| - Rips)

Skinwalker
 

ganzales

Лоцман

Пост 10-Ноя-2011 17:34 (спустя 2 дня 16 часов)

[Q] 

спосибо
[Профиль]  [ЛС] 

каз

Лоцман

Пост 11-Ноя-2011 19:21 (спустя 1 день 1 час)

[Q] 

Спасибо, понравилось)
[Профиль]  [ЛС] 

Пост 08-Дек-2011 13:21 (спустя 26 дней)

Топик был перенесен из форума Новинки (HD|DVD|BD|TV|SAT|PDTV| - Rips) в форум Российские фильмы

oliks
 

pozdnyakoff75

Гроза морей

2803

Пост 08-Мар-2012 19:48 (спустя 3 месяца 27 дней)

[Q] 

Спасибо! Хороший фильм! =)
[Профиль]  [ЛС] 

Sergi4

Гроза морей

Пост 15-Мар-2012 12:08 (спустя 6 дней)

[Q] 

[Профиль]  [ЛС] 

sebitev

Морской Волк

Пост 15-Мар-2012 13:51 (спустя 1 час 43 минуты)

[Q] 

[Профиль]  [ЛС] 
Показать сообщения:    
Ответить на тему

Текущее время: Сегодня 23:16

Часовой пояс: GMT + 4



Вы не можете начинать темы
Вы не можете отвечать на сообщения
Вы не можете редактировать свои сообщения
Вы не можете удалять свои сообщения
Вы не можете голосовать в опросах
Вы не можете прикреплять файлы к сообщениям
Вы не можете скачивать файлы

▼ Вниз