ML
     
  Уважаемый Гость!
Вы можете поддержать проект и зарегистрироваться у наших партнеров - онлайн-стратегия MyLands. При регистрации в игре Вы получите код, который сможете активировать после регистрации на pirat.ca и получить 1000 дублонов.

Ваш код:
ec3b26eefbcdc72e08e9fd33c6846bb2ca10f8b1
 
     

Неадекватные люди (Роман Каримов) [2010 г., мелодрама, комедия, HDRip]

Ответить на тему
 
Автор
Сообщение

Пост 08-Ноя-2011 03:20

[Q] 

zyyx

--Неадекватные люди
«Биться головой о стенку гораздо веселее, когда знаешь, что за ней скрывается родственная душа.»
-- Год выпуска: 2010
Российская премьера: 13 января 2011, «Парадиз»
Дата выхода DVD: 10 февраля 2011, «Парадиз Видео»
Дата выхода Blu-Ray: 10 февраля 2011, «Парадиз Видео»
Страна: Россия
Жанр: мелодрама, комедия
Продолжительность: 01:46:15
Перевод: Оригинал [Лицензия]
Режиссер: Роман Каримов
В ролях: Ингрид Олеринская, Назар Ас-Самаррай, Артем Душкин, Полина Иосилевич, Илья Любимов, Юлия Такшина, Влад Топалов, Анастасия Федоркова, Евгений Цыганов, Марина Зайцева
Описание: Тихий и воспитанный Виталик пытается начать жизнь с нуля в новом городе. Но странным образом ему на пути попадаются одни сумасшедшие. Его соседкой по лестничной площадке оказывается взбалмошная Кристина, стремящаяся переделать его из задрота в нормального мужика, на новой работе атакует похотливая начальница и даже психолог, помогающий ему совладать со всем этим — и тот оказывается садо-мазохистом. Виталик кажется единственным адекватным человеком здесь. Но так ли это на самом деле?-Сэмпл | КиноПоиск-Источник/Качество: HDRip
Формат: AVI
Видео кодек: XviD
Аудио кодек: AC3
Видео: 704x400 (1.76:1), 23.976 fps, XviD build 61, 1577 kbps avg, 0.23 bit/pixel
Аудио: 48 kHz, AC3 Dolby Digital, 3/2 (L,C,R,l,r) + LFE ch, 384 kbps
Общее
Полное имя : D:\pirat.ca\Неадекватные люди_1.46.avi
Формат : AVI
Формат/Информация : Audio Video Interleave
Размер файла : 1,46 Гбайт
Продолжительность : 1 ч. 46 м.
Общий поток : 1970 Кбит/сек
Программа кодирования : VirtualDubModRus 1.5.10.2 (build 2540/release)
Библиотека кодирования : VirtualDubMod build 2540/release
Видео
Идентификатор : 0
Формат : MPEG-4 Visual
Профиль формата : Advanced [email protected]
Параметр BVOP формата : 1
Параметр QPel формата : Нет
Параметр GMC формата : Без точки перехода
Параметр матрицы формата : Выборочная
Идентификатор кодека : XVID
Идентификатор кодека/Подсказка : XviD
Продолжительность : 1 ч. 46 м.
Битрейт : 1578 Кбит/сек
Ширина : 704 пикселя
Высота : 400 пикселей
Соотношение сторон : 16:9
Частота кадров : 23,976 кадра/сек
Цветовое пространство : YUV
Субдискретизация насыщенности : 4:2:0
Битовая глубина : 8 бит
Тип развёртки : Прогрессивная
Метод сжатия : С потерями
Бит/(Пиксели*Кадры) : 0.234
Размер потока : 1,17 Гбайт (80%)
Библиотека кодирования : XviD 61
Аудио
Идентификатор : 1
Формат : AC-3
Формат/Информация : Audio Coding 3
Расширение режима : CM (complete main)
Идентификатор кодека : 2000
Продолжительность : 1 ч. 45 м.
Вид битрейта : Постоянный
Битрейт : 384 Кбит/сек
Каналы : 6 каналов
Расположение каналов : Front: L C R, Side: L R, LFE
Частота : 48,0 КГц
Битовая глубина : 16 бит
Метод сжатия : С потерями
Размер потока : 291 Мбайт (19%)
Выравнивание : Разделение по промежуткам
Продолжительность промежутка : 42 мс. (1,00 видеокадр)
Время предзагрузки промежутка : 500 мс.



Download / Скачать

Хотите скачать бесплатно? Зарегистрируйтесь на сайте (ссылка на регистрацию). Pirat.ca - самый быстрый торрент трекер в рунете!

Как скачивать  ·   Что такое торрент  ·   Рейтинг и ограничения

Пост 08-Ноя-2011 06:12 (спустя 2 часа 51 минута)

Топик был перенесен из форума Наше Кино в форум Российские фильмы

Чужая
 

Kibersanya

Корсар

Пост 19-Янв-2013 12:55 (спустя 1 год 2 месяца)

[Q] 

[Профиль]  [ЛС] 

lee14

Лоцман

Пост 03-Июл-2013 19:30 (спустя 5 месяцев 15 дней)

[Q] 

Фильм просто супер, советую к просмотру
[Профиль]  [ЛС] 

valeriy_palych

Морской Волк

Пост 17-Фев-2014 22:14 (спустя 7 месяцев 14 дней)

[Q] 

Даже не помню смотрел или нет. Но судя по отзывам посмотрю даже ещё раз!
[Профиль]  [ЛС] 

Hippopotam

Корсар

Пост 27-Фев-2014 12:13 (спустя 9 дней)

[Q] 

Можно, оказывается, снять симпатичную комедию и о нашей стылой сегодняшней реальности! Для меня - по-своему, уникальное кинцо.
[Профиль]  [ЛС] 

lo.oktosky

Морской Волк

Пост 22-Мар-2014 02:54 (спустя 22 дня)

[Q] 

весьма
Супер!
[Профиль]  [ЛС] 

Scorpion7474

Флибустьер

Пост 07-Апр-2014 13:41 (спустя 16 дней)

[Q] 

спасибо качнем Лови бочку
[Профиль]  [ЛС] 

holdfast13666

Штурман

Пост 15-Окт-2014 15:38 (спустя 6 месяцев 8 дней)

[Q] 

Давно порываюсь посмотреть))) ВОТ И НАСТАЛ МОМЕНТ)))
Лови бочку Спасибо!!!
[Профиль]  [ЛС] 

dambrina

Флибустьер

Пост 07-Янв-2015 02:35 (спустя 2 месяца 22 дня)

[Q] 

качаю по совету друга +) Спасибо!!!
[Профиль]  [ЛС] 

Dj_GROB

Штурман

Пост 01-Июл-2016 13:33 (спустя 1 год 5 месяцев)

[Q] 

Мне фильм очень сильно понравился..
Смотрел с интересом )) Спасибо!!! Лови бочку
[Профиль]  [ЛС] 
Показать сообщения:    
Ответить на тему

Текущее время: Сегодня 03:46

Часовой пояс: GMT + 4



Вы не можете начинать темы
Вы не можете отвечать на сообщения
Вы не можете редактировать свои сообщения
Вы не можете удалять свои сообщения
Вы не можете голосовать в опросах
Вы не можете прикреплять файлы к сообщениям
Вы не можете скачивать файлы

▼ Вниз