ML
     
  Уважаемый Гость!
Вы можете поддержать проект и зарегистрироваться у наших партнеров - онлайн-стратегия MyLands. При регистрации в игре Вы получите код, который сможете активировать после регистрации на pirat.ca и получить 1000 дублонов.

Ваш код:
8b29d0f8cd61fe457e59e7df0aa1fab41a2b88b9
 
     

Страна глухих (Валерий Тодоровский) [1998 г., Драма, DVDRip]

Ответить на тему
 
Автор
Сообщение

Пост 18-Мар-2012 08:50

[Q] 

megamastor

Страна глухих
Год выпуска: 1998
Жанр: Драма
Продолжительность: 01:54:18
Режиссер: Валерий Тодоровский
В ролях: Чулпан Хаматова, Дина Корзун, Максим Суханов, Никита Тюнин, Александр Яцко, Александр Горбунов, Сергей Юшкевич
Описание: Милая девушка по имени Рита (Чулпан Хаматова – «Время танцора») случайно знакомится с глухой танцовщицей по имени Яя (Дина Корзун). Рита в отчаянном положении: ее парень Алеша по уши в долгах и прячется от бандитов. Яя знакомит Риту с нужными людьми, тоже глухими. Рита учит их язык, чтобы стать «ушами» глухого мафиози по имени Свинья (Максим Суханов – «Лимита», «Мама») за это ей обещаны необходимые деньги...
Источник/Качество: DVDRip
Формат: AVI
Видео кодек: XviD
Аудио кодек: AC3
Видео: 720x432 (1.67:1),25 fps,XviD build 47,1258 kbps avg,0.16 bit/pixel
Аудио: 48 kHz,AC3 Dolby Digital,3/2 (L,C,R,l,r) + LFE ch,448.00 kbps avg
Общее
Полное имя : F:\pirat.ca\Video\Strana.gluhih.1998.XviD.DVDRip.avi
Формат : AVI
Формат/Информация : Audio Video Interleave
Размер файла : 1,37 Гбайт
Продолжительность : 1 ч. 54 м.
Общий поток : 1713 Кбит/сек
Программа кодирования : VirtualDubMod 1.5.4.1 (build 2178/release)
Библиотека кодирования : VirtualDubMod build 2178/release
Видео
Идентификатор : 0
Формат : MPEG-4 Visual
Профиль формата : Advanced [email protected]
Параметр BVOP формата : 1
Параметр QPel формата : Нет
Параметр GMC формата : Без точки перехода
Параметр матрицы формата : Выборочная
Идентификатор кодека : XVID
Идентификатор кодека/Подсказка : XviD
Продолжительность : 1 ч. 54 м.
Битрейт : 1258 Кбит/сек
Ширина : 720 пикселей
Высота : 432 пикселя
Соотношение сторон : 1,667
Частота кадров : 25,000 кадров/сек
Цветовое пространство : YUV
Субдискретизация насыщенности : 4:2:0
Битовая глубина : 8 бит
Тип развёртки : Прогрессивная
Метод сжатия : С потерями
Бит/(Пиксели*Кадры) : 0.162
Размер потока : 1,00 Гбайт (73%)
Библиотека кодирования : XviD 1.2.0.dev47 (UTC 2006-11-01)
Аудио
Идентификатор : 1
Формат : AC-3
Формат/Информация : Audio Coding 3
Расширение режима : CM (complete main)
Идентификатор кодека : 2000
Продолжительность : 1 ч. 54 м.
Вид битрейта : Постоянный
Битрейт : 448 Кбит/сек
Каналы : 6 каналов
Расположение каналов : Front: L C R, Side: L R, LFE
Частота : 48,0 КГц
Битовая глубина : 16 бит
Метод сжатия : С потерями
Размер потока : 366 Мбайт (26%)
Выравнивание : Разделение по промежуткам
Продолжительность промежутка : 96 мс. (2,40 видеокадра)
Время предзагрузки промежутка : 96 мс.
Язык : Russian
Download / Скачать

Хотите скачать бесплатно? Зарегистрируйтесь на сайте (ссылка на регистрацию). Pirat.ca - самый быстрый торрент трекер в рунете!

Как скачивать  ·   Что такое торрент  ·   Рейтинг и ограничения

pz4

Корсар

79

Пост 18-Мар-2012 09:50 (спустя 1 час)

[Q] 


_________________
www.pirat.ca
[Профиль]  [ЛС] 

Пост 18-Мар-2012 14:03 (спустя 4 часа)

Топик был перенесен из форума Наше Кино в форум Российские фильмы

ara1205
 

xdgx

Флибустьер

Пост 19-Мар-2012 21:08 (спустя 1 день 11 часов)

[Q] 

[Профиль]  [ЛС] 
Показать сообщения:    
Ответить на тему

Текущее время: Сегодня 21:22

Часовой пояс: GMT + 4



Вы не можете начинать темы
Вы не можете отвечать на сообщения
Вы не можете редактировать свои сообщения
Вы не можете удалять свои сообщения
Вы не можете голосовать в опросах
Вы не можете прикреплять файлы к сообщениям
Вы не можете скачивать файлы

▼ Вниз