ML
     
  Уважаемый Гость!
Вы можете поддержать проект и зарегистрироваться у наших партнеров - онлайн-стратегия MyLands. При регистрации в игре Вы получите код, который сможете активировать после регистрации на pirat.ca и получить 1000 дублонов.

Ваш код:
bc31d8aef74c92e19ad67e34a8fa63c3b9b812fb
 
     

По этапу (Том Робертс/Tom Roberts) [2006 г., Военная драма, DVDRip]

Ответить на тему
 
Автор
Сообщение

Пост 09-Ноя-2011 11:55

[Q] 

arkatya99

Штурман

По этапу
Год выпуска: 2006
Российская премьера: 16 мая 2007
Дата выхода DVD: 25 июня 2009
Производство: Россия,Великобритания.
Жанр: Военная драма
Продолжительность: 01:48:00
Режиссер: Том Робертс/Tom Roberts
В ролях: Евгений Витальевич Миронов, Ингеборга Дапкунайте, Джон Малкович, Томас Кречманн, Вера Фармига
Описание: 1946 год. Пленных немецких солдат по ошибке отправляют в перевалочный лагерь, предназначенный для заключенных женщин, которых везут в ГУЛАГ. Страже дается указание найти среди пленных офицеров СС, и между заключенными и охраной начинается игра в кошки-мышки. Со временем и те, и другие понимают, что ситуация не так однозначна, как казалось на первый взгляд, и что не так просто провести грань между "своим" и "чужим".
КиноПоиск
Источник/Качество: DVDRip
Формат: AVI
Видео кодек: XviD
Аудио кодек: AC3
Видео: 672x288 25.00fps 1354Kbps
Аудио: Dolby AC3 48000Hz 6ch 448Kbps
General
Format : AVI
Format/Info : Audio Video Interleave
File size : 1.37 GiB
Duration : 1h 48mn
Overall bit rate : 1 812 Kbps
Writing application : VirtualDubMod 1.5.10.2 (build 2540/release)
Writing library : VirtualDubMod build 2540/release
Video #0
ID : 0
Format : MPEG-4 Visual
Format profile : Advanced [email protected]
Format settings, BVOP : Yes
Format settings, QPel : No
Format settings, GMC : No warppoints
Format settings, Matrix : Default (MPEG)
Muxing mode : Packed bitstream
Codec ID : XVID
Codec ID/Hint : XviD
Duration : 1h 48mn
Bit rate : 1 354 Kbps
Width : 672 pixels
Height : 288 pixels
Display aspect ratio : 2.35:1
Frame rate : 25.000 fps
Color space : YUV
Chroma subsampling : 4:2:0
Bit depth : 8 bits
Scan type : Progressive
Bits/(Pixel*Frame) : 0.280
Stream size : 1.02 GiB (75%)
Writing library : XviD 1.2.0.dev47 (UTC 2006-11-01)
Audio #1
ID : 1
Format : AC-3
Format/Info : Audio Coding 3
Mode extension : CM (complete main)
Codec ID : 2000
Duration : 1h 48mn
Bit rate mode : Constant
Bit rate : 448 Kbps
Channel(s) : 6 channels
Channel positions : Front: L C R, Side: L R, LFE
Sampling rate : 48.0 KHz
Bit depth : 16 bits
Stream size : 346 MiB (25%)
Alignment : Split accross interleaves
Interleave, duration : 40 ms (1.00 video frame)
Interleave, preload duration : 500 ms




Download / Скачать

Хотите скачать бесплатно? Зарегистрируйтесь на сайте (ссылка на регистрацию). Pirat.ca - самый быстрый торрент трекер в рунете!

Как скачивать  ·   Что такое торрент  ·   Рейтинг и ограничения

megamastor

2827

Пост 19-Фев-2012 13:13 (спустя 3 месяца 10 дней)

[Q] 

Радачу поддержу!
[Профиль]  [ЛС] 

sanchela9999

Корсар

Пост 24-Фев-2012 00:46 (спустя 4 дня)

[Q] 

Спасибо!!!Так же поддержу.
[Профиль]  [ЛС] 

Rusad

Флибустьер

Пост 27-Июн-2014 14:05 (спустя 2 года 4 месяца)

[Q] 

Хоть и поддерживаю я эту раздачу,но фильм гавно какое то,про нас но на нас совсем непохоже,Порадовала роль Миронова как раз ему в пору!
[Профиль]  [ЛС] 

KoNiaL_KCC

Гроза морей

Пост 08-Июл-2014 23:13 (спустя 11 дней)

[Q] 

Спасибо!!! посмотрим, оценим
[Профиль]  [ЛС] 
Показать сообщения:    
Ответить на тему

Текущее время: Сегодня 12:02

Часовой пояс: GMT + 4



Вы не можете начинать темы
Вы не можете отвечать на сообщения
Вы не можете редактировать свои сообщения
Вы не можете удалять свои сообщения
Вы не можете голосовать в опросах
Вы не можете прикреплять файлы к сообщениям
Вы не можете скачивать файлы

▼ Вниз