ML
     
  Уважаемый Гость!
Вы можете поддержать проект и зарегистрироваться у наших партнеров - онлайн-стратегия MyLands. При регистрации в игре Вы получите код, который сможете активировать после регистрации на pirat.ca и получить 1000 дублонов.

Ваш код:
2a3da67fd641d69eeebb7cb965232435a70eaa24
 
     

Игла Remix (Рашид Нугманов) [2010 г., триллер, драма, DVDRip]

Ответить на тему
 
Автор
Сообщение

Пост 09-Ноя-2011 22:13

[Q] 

zyyx

--Игла Remix
«Этот фильм не для вас...»
-- Год выпуска: 2010
Мировая премьера: 16 сентября 2010
Российская премьера: 16 сентября 2010, «Парадиз»
Страна: Россия
Жанр: триллер, драма
Продолжительность: 01:25:10
Перевод: Не требуется [Лицензия]
Режиссер: Рашид Нугманов
В ролях: Виктор Цой, Александр Баширов, Петр Мамонов, Марина Смирнова, Геннадий Люй, Архимед Искаков, Георгий Гурьянов, Дмитрий Мишенин
Описание: Герой Цоя, Моро, возвращается в родную Алма-Ату за денежным долгом мошенника Спартака и останавливается у своей подруги, с которой давно расстался. Старая любовь вернулась, но Дина удивляет его своим странным поведением и подозрительными знакомыми. Оказывается, она стала наркоманкой, и ее квартира превратилась в притон. Моро увозит ее к Аральскому морю, изолирует от окружающего мира и помогает избавиться от наркотической зависимости. Дина поправляется, но по возвращении в город поставщик наркотиков, хирург Артур, организует охоту за непокорными. Стоящая за ним преступная группировка принимает решение вновь посадить Дину на иглу и убить Моро.-Сэмпл | КиноПоиск-Источник/Качество: DVDRip
Формат: AVI
Видео кодек: XviD
Аудио кодек: AC3
Видео: 720x400 (1.80:1), 25 fps, XviD MPEG-4, 2033 kbps avg, 0.28 bit/pixel
Аудио: 48 kHz, AC3 Dolby Digital, 2/0 (L,R) ch, 256 kbps
Общее
Полное имя : D:\pirat.ca\Igla.Remix.2010.O.DVDRip.avi
Формат : AVI
Формат/Информация : Audio Video Interleave
Размер файла : 1,37 Гбайт
Продолжительность : 1 ч. 25 м.
Общий поток : 2299 Кбит/сек
Программа кодирования : VirtualDubMod 1.5.4.1 (build 2178/release)
Библиотека кодирования : VirtualDubMod build 2178/release
Видео
Идентификатор : 0
Формат : MPEG-4 Visual
Профиль формата : Advanced [email protected]
Параметр BVOP формата : 2
Параметр QPel формата : Нет
Параметр GMC формата : Без точки перехода
Параметр матрицы формата : Выборочная
Идентификатор кодека : XVID
Идентификатор кодека/Подсказка : XviD
Продолжительность : 1 ч. 25 м.
Битрейт : 2034 Кбит/сек
Ширина : 720 пикселей
Высота : 400 пикселей
Соотношение сторон : 16:9
Частота кадров : 25,000 кадров/сек
Цветовое пространство : YUV
Субдискретизация насыщенности : 4:2:0
Битовая глубина : 8 бит
Тип развёртки : Прогрессивная
Метод сжатия : С потерями
Бит/(Пиксели*Кадры) : 0.282
Размер потока : 1,21 Гбайт (88%)
Библиотека кодирования : XviD 58
Аудио
Идентификатор : 1
Формат : AC-3
Формат/Информация : Audio Coding 3
Расширение режима : CM (complete main)
Идентификатор кодека : 2000
Продолжительность : 1 ч. 25 м.
Вид битрейта : Постоянный
Битрейт : 256 Кбит/сек
Каналы : 2 канала
Расположение каналов : Front: L R
Частота : 48,0 КГц
Битовая глубина : 16 бит
Метод сжатия : С потерями
Задержка видео : 112 мс.
Размер потока : 156 Мбайт (11%)
Выравнивание : Разделение по промежуткам
Продолжительность промежутка : 40 мс. (1,00 видеокадр)
Время предзагрузки промежутка : 500 мс.


Download / Скачать

Хотите скачать бесплатно? Зарегистрируйтесь на сайте (ссылка на регистрацию). Pirat.ca - самый быстрый торрент трекер в рунете!

Как скачивать  ·   Что такое торрент  ·   Рейтинг и ограничения

Пост 11-Ноя-2011 07:11 (спустя 1 день 8 часов)

Топик был перенесен из форума Наше Кино в форум Российские фильмы

Skinwalker
 

@Vasilisk@

Штурман

Пост 12-Ноя-2011 01:50 (спустя 2 дня 3 часа)

[Q] 

Хорошая кина)

_________________
[Профиль]  [ЛС] 

VaNo192

Корсар

Пост 23-Янв-2012 07:13 (спустя 2 месяца 11 дней)

[Q] 

Думается мне, если бы не Цой с Мамоновым, не было бы у фильма такого резонанса...
[Профиль]  [ЛС] 

Александр 198001

Шкипер

Пост 25-Янв-2012 22:48 (спустя 2 дня 15 часов)

[Q] 

Спасибо
[Профиль]  [ЛС] 

Trasty

Штурман

Пост 30-Янв-2012 23:24 (спустя 5 дней)

[Q] 

А в чем отличие от первой версии? По описанию - тот же фильм.
[Профиль]  [ЛС] 

Trasty

Штурман

Пост 03-Фев-2012 20:59 (спустя 3 дня)

[Q] 

Качество раздачи отличное, но вот сам фильм не особо.
Посмотрел - что-то хрень какая-то. :(
Тем кто-то не смотрел оригинальную версию может и понравится, но по мне так - подпортили фильм. Просто фильм "Игла" гораздо лучше.
[Профиль]  [ЛС] 

UncleFather

Легенда

Пост 23-Мар-2013 16:29 (спустя 1 год 1 месяц)

[Q] 


_________________
Одни боялись Пью, другие - Билли Бонса, а меня... меня боялся сам Флинт
[Профиль]  [ЛС] 

Eagle Ed

Шкипер

Пост 14-Ноя-2013 10:39 (спустя 7 месяцев 21 день)

[Q] 

Спасибо!!! Ку три раза
[Профиль]  [ЛС] 

E8GEN

Корсар

Пост 12-Дек-2013 14:54 (спустя 28 дней)

[Q] 

добавили хеппи-энд в ремиксе,пересмотрел с удовольствием...Ностальгия)
[Профиль]  [ЛС] 

fando

Штурман

Пост 13-Янв-2014 10:58 (спустя 1 месяц)

[Q] 

!COOL! cj
[Профиль]  [ЛС] 
Показать сообщения:    
Ответить на тему

Текущее время: Сегодня 01:15

Часовой пояс: GMT + 4



Вы не можете начинать темы
Вы не можете отвечать на сообщения
Вы не можете редактировать свои сообщения
Вы не можете удалять свои сообщения
Вы не можете голосовать в опросах
Вы не можете прикреплять файлы к сообщениям
Вы не можете скачивать файлы

▼ Вниз