ML
     
  Уважаемый Гость!
Вы можете поддержать проект и зарегистрироваться у наших партнеров - онлайн-стратегия MyLands. При регистрации в игре Вы получите код, который сможете активировать после регистрации на pirat.ca и получить 1000 дублонов.

Ваш код:
2a3da67fd641d69eeebb7cb965232435a70eaa24
 
     

О чём говорят мужчины (Дмитрий Дьяченко) [2010 г., комедия, HDRip]

Ответить на тему
 
Автор
Сообщение

Пост 14-Ноя-2011 16:05

[Q] 

Димарик82

Корсар

О чём говорят мужчины
Год выпуска: 2010
Жанр: комедия
Продолжительность: 01:36:32
Режиссер: Дмитрий Дьяченко
В ролях: Леонид Барац, Александр Демидов, Камиль Ларин, Ростислав Хаит, Нонна Гришаева, Нина Русланова, Жанна Фриске, Сергей Никоненко, Федор Добронравов, Андрей Макаревич
Описание: О чем говорят мужчины? Конечно, о женщинах. Нет, еще о работе, о деньгах, о машинах, о футболе,… но в основном, все-таки, о женщинах. А уж если у них впереди два дня, которые они, вырвавшись из офисов и семей, уехав от всех забот и обязательств, проведут в дороге — два дня, насыщенные событиями и приключениями — то можете быть уверены, что за это время они успеют обсудить немало тем…
И еще. Из этих разговоров — это мы точно знаем — многие женщины узнают о себе очень много нового…
Источник/Качество: HDRip
Формат: AVI
Видео кодек: XviD
Аудио кодек: AC3
Видео: 688x368 (1.87:1), 24 fps, XviD build 50 ~1762 kbps avg, 0.29 bit/pixel
Аудио: 48 kHz, AC3 Dolby Digital, 3/2 (L,C,R,l,r) + LFE ch, ~384 kbps
Общее
Полное имя : E:\О чём говорят мужчины\O.chem.govoryat.muzhchiny.2010.HDRip.avi
Формат : AVI
Формат/Информация : Audio Video Interleave
Размер файла : 1,45 Гбайт
Продолжительность : 1 ч. 36 м.
Общий поток : 2156 Кбит/сек
Программа кодирования : VirtualDubMod 1.5.10.3 | || (build 2550/release)
Библиотека кодирования : VirtualDubMod build 2550/release
Видео
Идентификатор : 0
Формат : MPEG-4 Visual
Профиль формата : Advanced [email protected]
Параметр BVOP формата : 1
Параметр QPel формата : Нет
Параметр GMC формата : Без точки перехода
Параметр матрицы формата : Выборочная
Идентификатор кодека : XVID
Идентификатор кодека/Подсказка : XviD
Продолжительность : 1 ч. 36 м.
Битрейт : 1763 Кбит/сек
Ширина : 688 пикс.
Высота : 368 пикс.
Соотношение сторон : 1,870
Частота кадров : 24,000 кадр/сек
Цветовое пространство : YUV
Подвыборка цветности : 4:2:0
Битовая глубина : 8 бит
Тип развёртки : Прогрессивная
Метод сжатия : С потерями
Бит/(Пиксели*Кадры) : 0.290
Размер потока : 1,19 Гбайт (82%)
Библиотека кодирования : XviD 1.2.1 (UTC 2008-12-04)
Аудио
Идентификатор : 1
Формат : AC-3
Формат/Информация : Audio Coding 3
Расширение режима : CM (complete main)
Идентификатор кодека : 2000
Продолжительность : 1 ч. 36 м.
Вид битрейта : Постоянный
Битрейт : 384 Кбит/сек
Каналы : 6 каналов
Расположение каналов : Front: L C R, Side: L R, LFE
Частота : 48,0 КГц
Битовая глубина : 16 бит
Метод сжатия : С потерями
Размер потока : 265 Мбайт (18%)
Выравнивание : Разделение по промежуткам
Продолжительность промежутка : 42 мс. (1,00 видеокадр)
Время предзагрузки промежутка : 500 ms




Download / Скачать

Хотите скачать бесплатно? Зарегистрируйтесь на сайте (ссылка на регистрацию). Pirat.ca - самый быстрый торрент трекер в рунете!

Как скачивать  ·   Что такое торрент  ·   Рейтинг и ограничения



Последний раз редактировалось: Димарик82 (2011-11-14 18:03), всего редактировалось 1 раз

Пост 15-Ноя-2011 06:13 (спустя 14 часов)

Топик был перенесен из форума Наше Кино в форум Российские фильмы

Skinwalker
 

maxodus

Лоцман

Пост 07-Янв-2012 01:55 (спустя 1 месяц 22 дня)

[Q] 

афигенское кино)))))
[Профиль]  [ЛС] 

Onegin48

Штурман

Пост 15-Янв-2012 15:57 (спустя 8 дней)

[Q] 

порадовал фильмец,поглюжу еще разок другой
[Профиль]  [ЛС] 

Suncat

Корсар

Пост 22-Янв-2012 17:54 (спустя 7 дней)

[Q] 

Классный фильм! Ржал, аки конь!
[Профиль]  [ЛС] 

Volodko

Корсар

Пост 23-Янв-2012 00:49 (спустя 6 часов)

[Q] 

AAAA!!! "Квартет И" выжигаем напалмом. Валялся под столом. Всем рекомендую, смотрите, останетесь довольны.
[Профиль]  [ЛС] 

sd535

Флибустьер

1796

Пост 25-Янв-2012 20:41 (спустя 2 дня 19 часов)

[Q] 

[Профиль]  [ЛС] 

Chiochanka

Морской Волк

Пост 08-Фев-2012 22:37 (спустя 14 дней)

[Q] 

клевый фильм!
[Профиль]  [ЛС] 

^_^ Шеля ^_^

Шкипер

Пост 12-Фев-2012 12:42 (спустя 3 дня)

[Q] 

[Профиль]  [ЛС] 

XAPOH

Гроза морей

Пост 12-Фев-2012 14:10 (спустя 1 час 27 минут)

[Q] 


_________________

<<<Dolus an virtus quis in hoste requirat?>>>
Intel Core i7 2600, 16Gb Ram, GTX 670, SSD.
PS4.
[Профиль]  [ЛС] 

Dmitro

Шкипер

Пост 23-Фев-2012 19:21 (спустя 11 дней)

[Q] 

Супер фильм!!! Квартет неподражаем!!! Спасибо раздаче.
[Профиль]  [ЛС] 

vbreias

Пост 31-Май-2012 00:00 (спустя 3 месяца 7 дней)

[Q] 

Посмотрю и я. Пусть и с опозданием...
[Профиль]  [ЛС] 

azar4

Морской Волк

Пост 11-Авг-2012 13:50 (спустя 2 месяца 11 дней)

[Q] 

А ведь в этом фильме некоторые вещи правда!!!)))
[Профиль]  [ЛС] 

oper1989

Шкипер

Пост 23-Авг-2012 21:45 (спустя 12 дней)

[Q] 

[Профиль]  [ЛС] 

antis1962

Корсар

Пост 23-Авг-2012 23:38 (спустя 1 час 53 минуты)

[Q] 

Фильм порадовал...
[Профиль]  [ЛС] 

abazaba

Штурман

Пост 24-Авг-2012 18:43 (спустя 19 часов)

[Q] 

Вполне не плохой). Но какие ж эти мужики бабники...

_________________
[Профиль]  [ЛС] 

Элизиотта

Морской Волк

329

Пост 07-Окт-2012 12:22 (спустя 1 месяц 13 дней)

[Q] 

Суперское кино!
[Профиль]  [ЛС] 

Shadow_Jack

Шкипер

Пост 29-Окт-2012 00:27 (спустя 21 день)

[Q] 


_________________
Two beer or not two beer? (Shakesbeer)
Не люблю флудить, но так хочется вернуть себе шапочки:
[Профиль]  [ЛС] 

Дед Маврикий

Морской Волк

Пост 13-Ноя-2012 17:45 (спустя 15 дней)

[Q] 

[Профиль]  [ЛС] 

OleksBy

Корсар

Пост 27-Дек-2012 19:57 (спустя 1 месяц 14 дней)

[Q] 

качну, еще раз пересмотрю под праздники
[Профиль]  [ЛС] 

Klex

Морской Волк

Пост 23-Фев-2013 22:45 (спустя 1 месяц 27 дней)

[Q] 

[Профиль]  [ЛС] 

Elly_77

Морской Волк

Пост 19-Мар-2013 14:25 (спустя 23 дня)

[Q] 

[Профиль]  [ЛС] 

mitand

Морской Волк

Пост 25-Июн-2013 22:00 (спустя 3 месяца 6 дней)

[Q] 

фильм супер
[Профиль]  [ЛС] 

p1usheg

Морской Волк

Пост 29-Июн-2013 01:28 (спустя 3 дня)

[Q] 

Эталон русской комедии!!!!!
[Профиль]  [ЛС] 

hypocritic

Шкипер

Пост 30-Авг-2013 19:42 (спустя 2 месяца 1 день)

[Q] 

просто, по доюрому)
[Профиль]  [ЛС] 

viewpoint

Шкипер

28

Пост 22-Июн-2014 05:21 (спустя 9 месяцев 22 дня)

[Q] 

весёлый фильм
Одобрямс!
[Профиль]  [ЛС] 

ShamanIEA

Морской Волк

Пост 11-Июл-2014 08:19 (спустя 19 дней)

[Q] 

Шикарный фильм, а отличном качестве есть?
[Профиль]  [ЛС] 

turysas

Штурман

Пост 18-Окт-2014 21:39 (спустя 3 месяца 7 дней)

[Q] 

Спасибо!!! хороший вечер обеспечен
[Профиль]  [ЛС] 

fiona-d

Шкипер

32

Пост 06-Апр-2015 10:07 (спустя 5 месяцев 18 дней)

[Q] 

хороший фильм ) спасибо! Супер! Лови бочку
[Профиль]  [ЛС] 

sqquirrell

Шкипер

Пост 07-Янв-2016 21:28 (спустя 9 месяцев 1 день)

[Q] 

хороший фильм, пересматриваю уже не первый раз!
[Профиль]  [ЛС] 
Показать сообщения:    
Ответить на тему

Текущее время: Сегодня 01:16

Часовой пояс: GMT + 4



Вы не можете начинать темы
Вы не можете отвечать на сообщения
Вы не можете редактировать свои сообщения
Вы не можете удалять свои сообщения
Вы не можете голосовать в опросах
Вы не можете прикреплять файлы к сообщениям
Вы не можете скачивать файлы

▼ Вниз