ML
     
  Уважаемый Гость!
Вы можете поддержать проект и зарегистрироваться у наших партнеров - онлайн-стратегия MyLands. При регистрации в игре Вы получите код, который сможете активировать после регистрации на pirat.ca и получить 1000 дублонов.

Ваш код:
ec3b26eefbcdc72e08e9fd33c6846bb2ca10f8b1
 
     

День радио (Дмитрий Дьяченко) [2008 г., комедия, DVDRip]

Страницы :  1, 2  След.

Ответить на тему
 
Автор
Сообщение

Пост 14-Ноя-2011 16:27

[Q] 

Димарик82

Корсар

День радио
Год выпуска: 2008
Жанр: комедия
Продолжительность: 01:45:16
Режиссер: Дмитрий Дьяченко
В ролях: Федор Добронравов, Алексей Хардиков, Амалия Мордвинова, Николай Фоменко, Дмитрий Марьянов, Леонид Барац, Александр Демидов, Камиль Ларин, Ростислав Хаит, Михаил Козырев, Максим Виторган и др.
Описание: На популярной московской радиостанции `Как Бы Радио` запланирован `живой` музыкальный марафон с участием рок-групп, посвященный исчезновению туристов в Конго. Всё спланировано и продумано до последней мелочи, но за полчаса до эфира выясняется, что тему подхватили конкуренты, а значит нужно искать новый информационный повод. В результате молниеносного мозгового штурма решено освещать крушение океанского крейсера, на борту которого - уникальный зоопарк с внесенными в Красную книгу животными (подкустовый выхухоль, североамериканский кролик-зануда, двузубый чернопопик и т.д.). И это не ложь! Это полуправда. Просто рассказывать о стареньком баркасе с провинциальным цирком на борту было бы куда менее интересно
Источник/Качество: DVDRip
Формат: AVI
Видео кодек: XviD
Аудио кодек: AC3
Видео: 592x320 (1.85:1), 25 fps, DivX Codec 5.x or 6.x ~,
Аудио: 48 kHz, AC3 Dolby Digital, 5 ch, ~448.00 kbps a
Общее
Полное имя : E:День радио\Den radio.avi
Формат : AVI
Формат/Информация : Audio Video Interleave
Размер файла : 1,21 Гбайт
Продолжительность : 1 ч. 38 м.
Общий поток : 1758 Кбит/сек
Библиотека кодирования : VirtualDub build 28204/release
Видео
Идентификатор : 0
Формат : MPEG-4 Visual
Параметр BVOP формата : 1
Параметр QPel формата : Нет
Параметр GMC формата : Без точки перехода
Параметр матрицы формата : Default (H.263)
Режим смешивания : Сжатый битовый поток
Идентификатор кодека : DX50
Идентификатор кодека/Подсказка : DivX 5
Продолжительность : 1 ч. 38 м.
Битрейт : 1300 Кбит/сек
Ширина : 592 пикс.
Высота : 320 пикс.
Соотношение сторон : 1,850
Частота кадров : 25,000 кадр/сек
Цветовое пространство : YUV
Подвыборка цветности : 4:2:0
Битовая глубина : 8 бит
Тип развёртки : Прогрессивная
Метод сжатия : С потерями
Бит/(Пиксели*Кадры) : 0.274
Размер потока : 919 Мбайт (74%)
Библиотека кодирования : DivX 6.8.0 (UTC 2007-12-04)
Аудио
Идентификатор : 1
Формат : AC-3
Формат/Информация : Audio Coding 3
Расширение режима : CM (complete main)
Идентификатор кодека : 2000
Продолжительность : 1 ч. 38 м.
Вид битрейта : Постоянный
Битрейт : 448 Кбит/сек
Каналы : 6 каналов
Расположение каналов : Front: L C R, Side: L R, LFE
Частота : 48,0 КГц
Битовая глубина : 16 бит
Метод сжатия : С потерями
Размер потока : 317 Мбайт (25%)
Выравнивание : Разделение по промежуткам
Продолжительность промежутка : 40 мс. (1,00 видеокадр)
Время предзагрузки промежутка : 500 ms



Download / Скачать

Хотите скачать бесплатно? Зарегистрируйтесь на сайте (ссылка на регистрацию). Pirat.ca - самый быстрый торрент трекер в рунете!

Как скачивать  ·   Что такое торрент  ·   Рейтинг и ограничения



Последний раз редактировалось: Димарик82 (2011-11-14 18:01), всего редактировалось 1 раз

Пост 15-Ноя-2011 06:12 (спустя 13 часов)

Топик был перенесен из форума Наше Кино в форум Российские фильмы

Skinwalker
 

Mr.Levushka

Лоцман

Пост 07-Янв-2012 06:00 (спустя 1 месяц 22 дня)

[Q] 

Спасибо большое!
[Профиль]  [ЛС] 

alexandr.x79

Корсар

807

Пост 12-Янв-2012 23:15 (спустя 5 дней)

[Q] 

замечательный фильмец.
[Профиль]  [ЛС] 

zama

Шкипер

Пост 16-Янв-2012 21:24 (спустя 3 дня)

[Q] 

Кино выше всяких похвал!!!
[Профиль]  [ЛС] 

tiberium2007

Штурман

Пост 24-Янв-2012 00:58 (спустя 7 дней)

[Q] 

спасибо!

_________________
[Профиль]  [ЛС] 

tov.KAPITAN

Корсар

Пост 24-Янв-2012 21:35 (спустя 20 часов)

[Q] 

давно хотел посмотреть
спасибо!!!

_________________
[Профиль]  [ЛС] 

Александр 198001

Шкипер

Пост 25-Янв-2012 22:47 (спустя 1 день 1 час)

[Q] 

Спасибо
[Профиль]  [ЛС] 

GrandT

Штурман

Пост 05-Фев-2012 11:06 (спустя 10 дней)

[Q] 

Спасибо
[Профиль]  [ЛС] 

K-0-t

Морской Волк

544

Пост 05-Фев-2012 18:22 (спустя 7 часов)

[Q] 

Автору:

________________________________

P.S. А гиде скрины?
[Профиль]  [ЛС] 

ravinmtv

Морской Волк

Пост 07-Фев-2012 17:44 (спустя 1 день 23 часа)

[Q] 

[Профиль]  [ЛС] 

sergein

Корсар

Пост 25-Фев-2012 15:53 (спустя 17 дней)

[Q] 

[Профиль]  [ЛС] 

.........

Лоцман

Пост 24-Мар-2012 09:53 (спустя 27 дней)

[Q] 

[Профиль]  [ЛС] 

Mitiaj

Штурман

Пост 08-Апр-2012 21:30 (спустя 15 дней)

[Q] 

Хороший фильм!
[Профиль]  [ЛС] 

patriarchurza

Штурман

33

Пост 02-Июн-2012 22:32 (спустя 1 месяц 24 дня)

[Q] 

Спасибо!
[Профиль]  [ЛС] 

Елена1992

Лоцман

Пост 31-Июл-2012 15:11 (спустя 1 месяц 28 дней)

[Q] 

ba спасиб) отличный фильм)
[Профиль]  [ЛС] 

Елена1992

Лоцман

Пост 31-Июл-2012 15:19 (спустя 8 минут)

[Q] 

скорости вообще нет((( встаньте кто нибудь на раздачу!
[Профиль]  [ЛС] 

antis1962

Корсар

Пост 23-Авг-2012 23:54 (спустя 23 дня)

[Q] 

Замечательный фильм Спасибо....
[Профиль]  [ЛС] 

abazaba

Штурман

Пост 24-Авг-2012 18:37 (спустя 18 часов)

[Q] 

thanks ^^

_________________
[Профиль]  [ЛС] 

Chiochanka

Морской Волк

Пост 24-Сен-2012 20:04 (спустя 1 месяц)

[Q] 

[Профиль]  [ЛС] 

gaggi

Лоцман

Пост 16-Ноя-2012 11:28 (спустя 1 месяц 21 день)

[Q] 

[Профиль]  [ЛС] 

hohol541

Корсар

Пост 29-Дек-2012 10:22 (спустя 1 месяц 12 дней)

[Q] 

Что-то как-то несовсем.
[Профиль]  [ЛС] 

E-RTY

Флибустьер

30

Пост 01-Янв-2013 19:15 (спустя 3 дня)

[Q] 

приятный и очень легкий фильм
[Профиль]  [ЛС] 

colonel96

Морской Волк

Пост 05-Янв-2013 18:55 (спустя 3 дня)

[Q] 

Понравилось, посмеялся, особенно над Красной книгой... Про солярку жизненно.. Поднял фильм настроение
[Профиль]  [ЛС] 

Saracin

Штурман

Пост 11-Янв-2013 14:55 (спустя 5 дней)

[Q] 

Фильм хороший, с удовольствием посмотрю еще раз - в четвертый или уже пятый.

_________________

Бог один, провайдеры разные!
[Профиль]  [ЛС] 

Тошик

Морской Волк

Пост 25-Дек-2013 19:21 (спустя 11 месяцев 14 дней)

[Q] 

Отличный фильм, смотрел много раз, еще посмотрю Спасибо!!!
[Профиль]  [ЛС] 

erda

Морской Волк

Пост 02-Мар-2014 17:50 (спустя 2 месяца 7 дней)

[Q] 

случайно удалил - качаю заново. фильм - как настольная книга юмора. Лови бочку
[Профиль]  [ЛС] 

Анна 341662

Корсар

11

Пост 09-Май-2014 19:34 (спустя 2 месяца 7 дней)

[Q] 

Спасибо за отличную раздачу Лови бочку
[Профиль]  [ЛС] 

alex_mozes

Морской Волк

Пост 13-Сен-2014 17:34 (спустя 4 месяца 3 дня)

[Q] 

фильм супер!) спасибо)) Лови бочку
[Профиль]  [ЛС] 

vk

Пост 31-Окт-2014 01:00 (спустя 1 месяц 17 дней)

[Q] 

Захотел посмотреть после просмотра фильма "День выборов", надеюсь этот такой же
[Профиль]  [ЛС] 
Показать сообщения:    
Ответить на тему

Текущее время: Сегодня 03:51

Часовой пояс: GMT + 4



Вы не можете начинать темы
Вы не можете отвечать на сообщения
Вы не можете редактировать свои сообщения
Вы не можете удалять свои сообщения
Вы не можете голосовать в опросах
Вы не можете прикреплять файлы к сообщениям
Вы не можете скачивать файлы

▼ Вниз