ML
     
  Уважаемый Гость!
Вы можете поддержать проект и зарегистрироваться у наших партнеров - онлайн-стратегия MyLands. При регистрации в игре Вы получите код, который сможете активировать после регистрации на pirat.ca и получить 1000 дублонов.

Ваш код:
74c28610d77aaac24ba694c4128f3b9b46b04220
 
     

Прощание славянки (Владимир Янощук) [2011 г., Мелодрама, SATRip]

Ответить на тему
 
Автор
Сообщение

Пост 14-Ноя-2011 22:07

[Q] 

UA4HQW

Флибустьер

Прощание славянки
Год выпуска: 2011
Жанр: Мелодрама
Продолжительность: 01:28:03
Режиссер: Владимир Янощук
В ролях: Евгения Добровольская, Даниил Спиваковский, Юрий Яковлев-Суханов, Анна Леванова, Сергей Насибов, Ян Цапник, Дарья Чаруша, Владимир Чуприков, Ксения Черноскутова, Бронислава Захарова
Описание: Жизнь не балует Альбину, начальницу маленькой железнодорожной станции. Она вкалывает с утра до ночи, чтобы прокормить семью – взрослую дочку и вечно безработного мужа. Но, вместо благодарности, Альбину ждет удар – оказывается, муж целыми днями занят вовсе не поиском работы, а романом с молоденькой продавщицей! Вдобавок ко всем несчастьям, на героиню сваливается новое: сошедший с московского поезда пассажир «с высоты столичного жителя» требует выдать ему билет из брони – он, кажется, уверен, что может купить всю станцию с работниками в придачу.. Однако, когда у москвича крадут деньги с документами, он ведет себя столь неожиданно, что заставляет Альбину посмотреть на него новыми глазами…
Источник/Качество: SATRip
Формат: AVI
Видео кодек: XviD
Аудио кодек: MP3
Video: 704x384 (1.83:1), 25 fps, XviD build 50 ~1979 kbps avg, 0.29 bit/pixel
Audio: 48 kHz, MPEG Layer 3, 2 ch, ~192.00 kbps avg
Общее
Полное имя : Proshanie.Slavyanki.[pirat.ca].avi
Формат : AVI
Формат/Информация : Audio Video Interleave
Размер файла : 1,34 Гбайт
Продолжительность : 1 ч. 28 м.
Общий поток : 2182 Кбит/сек
Библиотека кодирования : VirtualDub build 32842/release
Видео
Идентификатор : 0
Формат : MPEG-4 Visual
Профиль формата : Advanced [email protected]
Параметр BVOP формата : 2
Параметр QPel формата : Нет
Параметр GMC формата : Без точки перехода
Параметр матрицы формата : Default (MPEG)
Идентификатор кодека : XVID
Идентификатор кодека/Подсказка : XviD
Продолжительность : 1 ч. 28 м.
Битрейт : 1980 Кбит/сек
Ширина : 704 пикс.
Высота : 384 пикс.
Соотношение сторон : 16:9
Частота кадров : 25,000 кадр/сек
Цветовое пространство : YUV
Подвыборка цветности : 4:2:0
Битовая глубина : 8 бит
Тип развёртки : Прогрессивная
Метод сжатия : С потерями
Бит/(Пиксели*Кадры) : 0.293
Размер потока : 1,22 Гбайт (91%)
Библиотека кодирования : XviD 1.2.1 (UTC 2008-12-04)
Аудио
Идентификатор : 1
Формат : MPEG Audio
Версия формата : Version 1
Профиль формата : Layer 3
Режим : Joint stereo
Расширение режима : MS Stereo
Идентификатор кодека : 55
Идентификатор кодека/Подсказка : MP3
Продолжительность : 1 ч. 28 м.
Вид битрейта : Постоянный
Битрейт : 192 Кбит/сек
Каналы : 2 канала
Частота : 48,0 КГц
Метод сжатия : С потерями
Размер потока : 121 Мбайт (9%)
Выравнивание : Разделение по промежуткам
Продолжительность промежутка : 40 мс. (1,00 видеокадр)
Время предзагрузки промежутка : 500 ms
Библиотека кодирования : LAME3.98r
Настройки программы : -m j -V 4 -q 2 -lowpass 18.6 -b 192


Download / Скачать

Хотите скачать бесплатно? Зарегистрируйтесь на сайте (ссылка на регистрацию). Pirat.ca - самый быстрый торрент трекер в рунете!

Как скачивать  ·   Что такое торрент  ·   Рейтинг и ограничения



Последний раз редактировалось: UA4HQW (2011-11-17 03:43), всего редактировалось 2 раз(а)

Пост 17-Ноя-2011 07:33 (спустя 2 дня 9 часов)

Топик был перенесен из форума Наше Кино в форум Российские фильмы

Skinwalker
 
Показать сообщения:    
Ответить на тему

Текущее время: Сегодня 10:00

Часовой пояс: GMT + 4



Вы не можете начинать темы
Вы не можете отвечать на сообщения
Вы не можете редактировать свои сообщения
Вы не можете удалять свои сообщения
Вы не можете голосовать в опросах
Вы не можете прикреплять файлы к сообщениям
Вы не можете скачивать файлы

▼ Вниз