ML
     
  Уважаемый Гость!
Вы можете поддержать проект и зарегистрироваться у наших партнеров - онлайн-стратегия MyLands. При регистрации в игре Вы получите код, который сможете активировать после регистрации на pirat.ca и получить 1000 дублонов.

Ваш код:
2a3da67fd641d69eeebb7cb965232435a70eaa24
 
     

Чужие (Юрий Грымов) [2008 г., Драма, DVDRip]

Ответить на тему
 
Автор
Сообщение

Пост 15-Ноя-2011 00:56

[Q] 

Voldemar

Чужие
Год выпуска: 2008
Страна: Россия, США, Египет
Жанр: Драма
Продолжительность: 01:40:46
Режиссер: Юрий Грымов
Сценарий: Юрий Грымов, Владимир Малягин, Александр Ремнев (сюжет)
Продюсер: Юрий Грымов
Оператор: Андрей Каторженко
Художник: Аббас Сабер
В ролях: Виктор Бычков, Алексей Полуян, Скарлетт МакАлистер, Марк Адам, Кэтлин Гати, Нил Стюарт, Джефф Грэйс, Денис Нагретдинов
Описание: Этот фильм о столкновении культур, о конфликте традиций и современной вседозволенности. Герои страдают от страха и отчуждения, измены и равнодушия, ревности и жестокости. И все-таки, они несут в мир настроения и привычки того общества, детьми которого являются. Но можно ли привить чужой культуре свою мораль? А самое главное: нужно ли это делать, если, в конечном счете, человеческая мораль – одна на все времена? Прошло 29 лет после знаменитого фильма Ридли Скотта «Чужой» и снова, уже в изложении режиссера Юрия Грымова, на экраны рвутся «чужие» – только теперь это не инопланетяне, а обычные люди, которые под давлением обстоятельств могут превратиться в настоящих чудовищ...
Рейтинг на КиноПоиске - 5,890/10
Качество: DVDRip
Формат: AVI
Видео кодек: XviD
Аудио кодек: AC3
Видео: XVID 704x288 25.00fps 1484Kbps 0.293b/p
Аудио: Dolby AC3 48000Hz 6ch 448Kbps
Общее
Полное имя : G:\Чужие (RUS).avi
Формат : AVI
Формат/Информация : Audio Video Interleave
Размер файла : 1,37 Гбайт
Продолжительность : 1 ч. 40 м.
Общий поток : 1942 Кбит/сек
Программа кодирования : VirtualDubMod 1.5.10.2 (build 2540/release)
Библиотека кодирования : VirtualDubMod build 2540/release
Видео
Идентификатор : 0
Формат : MPEG-4 Visual
Профиль формата : Advanced [email protected]
Параметр BVOP формата : 2
Параметр QPel формата : Нет
Параметр GMC формата : Без точки перехода
Параметр матрицы формата : Default (MPEG)
Режим смешивания : Сжатый битовый поток
Идентификатор кодека : XVID
Идентификатор кодека/Подсказка : XviD
Продолжительность : 1 ч. 40 м.
Битрейт : 1485 Кбит/сек
Ширина : 704 пикселя
Высота : 288 пикселей
Соотношение сторон : 2,40:1
Частота кадров : 25,000 кадров/сек
Цветовое пространство : YUV
Субдискретизация насыщенности : 4:2:0
Битовая глубина : 8 бит
Тип развёртки : Прогрессивная
Метод сжатия : С потерями
Бит/(Пиксели*Кадры) : 0.293
Размер потока : 1,05 Гбайт (76%)
Библиотека кодирования : XviD 1.2.0.dev47 (UTC 2006-11-01)
Аудио
Идентификатор : 1
Формат : AC-3
Формат/Информация : Audio Coding 3
Расширение режима : CM (complete main)
Идентификатор кодека : 2000
Продолжительность : 1 ч. 40 м.
Вид битрейта : Постоянный
Битрейт : 448 Кбит/сек
Каналы : 6 каналов
Расположение каналов : Front: L C R, Side: L R, LFE
Частота : 48,0 КГц
Битовая глубина : 16 бит
Метод сжатия : С потерями
Размер потока : 323 Мбайт (23%)
Выравнивание : Разделение по промежуткам
Продолжительность промежутка : 40 мс. (1,00 видеокадр)
Время предзагрузки промежутка : 500 мс.




Download / Скачать

Хотите скачать бесплатно? Зарегистрируйтесь на сайте (ссылка на регистрацию). Pirat.ca - самый быстрый торрент трекер в рунете!

Как скачивать  ·   Что такое торрент  ·   Рейтинг и ограничения

Пост 23-Ноя-2011 18:02 (спустя 8 дней)

Топик был перенесен из форума Наше Кино в форум Российские фильмы

Skinwalker
 

Znoi

Флибустьер

1163

Пост 21-Янв-2012 11:45 (спустя 2 месяца 6 дней)

[Q] 

Спасибо за релиз
[Профиль]  [ЛС] 

agamemnen

Шкипер

Пост 12-Фев-2012 00:45 (спустя 21 день)

[Q] 

[Профиль]  [ЛС] 

Mitiaj

Штурман

Пост 29-Мар-2012 17:16 (спустя 1 месяц 17 дней)

[Q] 

[Профиль]  [ЛС] 

igo-go

Корсар

Пост 24-Май-2012 20:37 (спустя 1 месяц 26 дней)

[Q] 

как фильм ?
[Профиль]  [ЛС] 

krasavchik34

Пост 19-Авг-2012 13:40 (спустя 2 месяца 25 дней)

[Q] 

благодарим за хороший фильм.
[Профиль]  [ЛС] 

antis1962

Корсар

Пост 23-Авг-2012 23:44 (спустя 4 дня)

[Q] 

Спасибо за фильм.
[Профиль]  [ЛС] 
Показать сообщения:    
Ответить на тему

Текущее время: Сегодня 01:11

Часовой пояс: GMT + 4



Вы не можете начинать темы
Вы не можете отвечать на сообщения
Вы не можете редактировать свои сообщения
Вы не можете удалять свои сообщения
Вы не можете голосовать в опросах
Вы не можете прикреплять файлы к сообщениям
Вы не можете скачивать файлы

▼ Вниз