ML
     
  Уважаемый Гость!
Вы можете поддержать проект и зарегистрироваться у наших партнеров - онлайн-стратегия MyLands. При регистрации в игре Вы получите код, который сможете активировать после регистрации на pirat.ca и получить 1000 дублонов.

Ваш код:
21acd5966619d49ad0b90c3305467b4646cc11a8
 
     

Мой папа - Барышников (Дмитрий Поволоцкий, Марк Другой) [2011 г., комедия, DVDRip-AVC]

Ответить на тему
 
Автор
Сообщение

Пост 16-Ноя-2011 22:56

[Q] 

zyyx

--Мой папа - Барышников
«Лови мечту в кино!»
-- Год выпуска: 2011
Мировая премьера: 10 октября 2011
Российская премьера: 6 октября 2011, «Каравелла DDC»
Дата выхода DVD: 27 октября 2011, «Новый Диск»
Страна: Россия
Жанр: комедия
Продолжительность: 01:27:28
Перевод: Оригинал
Режиссер: Дмитрий Поволоцкий, Марк Другой
В ролях: Дмитрий Выскубенко, Анатолий Кот, Анна Михалкова, Ксения Суркова, Сергей Сосновский, Людмила Титова, Владимир Капустин
Описание: Москва, 1986 год. Начинается Перестройка. Обаятельный и неуклюжий мальчик Боря учится в хореографическом училище Большого Театра, любит музыку диско, мечтает танцевать с самой красивой девчонкой в классе и раскрывает удивительную тайну: его отец — великий танцор Михаил Барышников…
Cовременный и жизнеутверждающий взгляд на не столь отдаленную эпоху, когда все мы жили в одинаковых квартирах с одинаковой мебелью и носили одинаковую одежду. А мечтали — быть разными.-IMDB | КиноПоиск-Источник/Качество: DVDRip-AVC
Формат: MKV
Видео кодек: H.26x
Аудио кодек: AC3
Видео: [email protected] (1,86:1); 25,000 fps; 1796 kbps; 0.181 bit/pixel
Аудио: AC3, 6 ch., 48 kHz, ~448.00 kbps
Общее
Уникальный идентификатор : 173693796735385345140571242581007014681 (0x82AC355B954D20DEA658A4809AD01B19)
Полное имя : F:\pirat.ca\Moy.Papa.Baryshnikov.2011.DVDRip.x264.potroks.mkv
Формат : Matroska
Версия формата : Version 2
Размер файла : 1,37 Гбайт
Продолжительность : 1 ч. 27 м.
Общий поток : 2244 Кбит/сек
Название фильма : -=POTROKS=-
Дата кодирования : UTC 2011-10-26 16:41:00
Программа кодирования : mkvmerge v4.9.1 ('Ich will') сборка от Jul 11 2011 23:53:15
Библиотека кодирования : libebml v1.2.1 + libmatroska v1.1.1
Видео
Идентификатор : 1
Формат : AVC
Формат/Информация : Advanced Video Codec
Профиль формата : [email protected]
Параметр CABAC формата : Да
Параметр ReFrames формата : 9 кадров
Идентификатор кодека : V_MPEG4/ISO/AVC
Продолжительность : 1 ч. 27 м.
Битрейт : 1796 Кбит/сек
Ширина : 720 пикселей
Высота : 552 пикселя
Соотношение сторон : 1,857
Соотношение сторон в оригинале : 1,862
Частота кадров : 25,000 кадров/сек
Цветовое пространство : YUV
Субдискретизация насыщенности : 4:2:0
Битовая глубина : 8 бит
Тип развёртки : Прогрессивная
Бит/(Пиксели*Кадры) : 0.181
Размер потока : 1,07 Гбайт (78%)
Библиотека кодирования : x264 core 115 r1937 aa21558
Настройки программы : cabac=1 / ref=9 / deblock=1:-2:-2 / analyse=0x3:0x133 / me=umh / subme=10 / psy=1 / psy_rd=1.00:0.10 / mixed_ref=1 / me_range=24 / chroma_me=1 / trellis=2 / 8x8dct=1 / cqm=0 / deadzone=21,11 / fast_pskip=1 / chroma_qp_offset=-3 / threads=9 / sliced_threads=0 / nr=0 / decimate=1 / interlaced=0 / bluray_compat=0 / constrained_intra=0 / bframes=3 / b_pyramid=2 / b_adapt=2 / b_bias=0 / direct=3 / weightb=1 / open_gop=0 / weightp=2 / keyint=250 / keyint_min=25 / scenecut=40 / intra_refresh=0 / rc_lookahead=60 / rc=2pass / mbtree=1 / bitrate=1796 / ratetol=1.0 / qcomp=0.60 / qpmin=0 / qpmax=69 / qpstep=4 / cplxblur=20.0 / qblur=0.5 / ip_ratio=1.40 / aq=1:1.20
Аудио
Идентификатор : 2
Формат : AC-3
Формат/Информация : Audio Coding 3
Расширение режима : CM (complete main)
Идентификатор кодека : A_AC3
Продолжительность : 1 ч. 27 м.
Вид битрейта : Постоянный
Битрейт : 448 Кбит/сек
Каналы : 6 каналов
Расположение каналов : Front: L C R, Side: L R, LFE
Частота : 48,0 КГц
Битовая глубина : 16 бит
Метод сжатия : С потерями
Размер потока : 280 Мбайт (20%)
Язык : Russian









Download / Скачать

Хотите скачать бесплатно? Зарегистрируйтесь на сайте (ссылка на регистрацию). Pirat.ca - самый быстрый торрент трекер в рунете!

Как скачивать  ·   Что такое торрент  ·   Рейтинг и ограничения

Пост 16-Ноя-2011 22:58 (спустя 1 минута)

Топик был перенесен из форума Наше Кино в форум Новинки (HD|DVD|BD|TV|SAT|PDTV| - Rips)

Skinwalker
 

Пост 04-Янв-2012 15:04 (спустя 1 месяц 17 дней)

Топик был перенесен из форума Новинки (HD|DVD|BD|TV|SAT|PDTV| - Rips) в форум Российские фильмы

goxakrauter
 

maksimbond

Корсар

2

Пост 13-Янв-2012 00:32 (спустя 1 месяц 26 дней)

[Q] 

не совсем то чего ожидал, но все равно понравилось)
[Профиль]  [ЛС] 
Показать сообщения:    
Ответить на тему

Текущее время: Сегодня 23:17

Часовой пояс: GMT + 4



Вы не можете начинать темы
Вы не можете отвечать на сообщения
Вы не можете редактировать свои сообщения
Вы не можете удалять свои сообщения
Вы не можете голосовать в опросах
Вы не можете прикреплять файлы к сообщениям
Вы не можете скачивать файлы

▼ Вниз