ML
     
  Уважаемый Гость!
Вы можете поддержать проект и зарегистрироваться у наших партнеров - онлайн-стратегия MyLands. При регистрации в игре Вы получите код, который сможете активировать после регистрации на pirat.ca и получить 1000 дублонов.

Ваш код:
2a3da67fd641d69eeebb7cb965232435a70eaa24
 
     

Пять невест (Авдотья Смирнова) [2011 г., комедия, DVDRip-AVC]

Ответить на тему
 
Автор
Сообщение

Пост 17-Ноя-2011 10:58

[Q] 

zyyx

--Пять невест-- Год выпуска: 2011
Мировая премьера: 29 сентября 2011
Российская премьера: 29 сентября 2011, «Централ Партнершип»
Дата выхода DVD: 27 октября 2011, «Новый Диск»
Страна: Россия
Жанр: комедия
Продолжительность: 01:43:23
Перевод: Не требуется [Лицензия]
Режиссер: Авдотья Смирнова
В ролях: Данила Козловский, Артур Смольянинов, Владимир Яглыч, Елизавета Боярская, Юлия Пересильд, Светлана Ходченкова, Ирина Пегова, Валерий Золотухин, Марина Голуб, Александр Лойе
Описание: Май 1945 года. Вся страна ликует и строит планы на новую послевоенную жизнь. Счастливые воины-победители, дошедшие до Берлина, мечтают вернуться героями домой. Но их не спешат отпускать… Очень расстроены этим обстоятельством бравые летчики-истребители Вадик, Леша, Гарик, Ваня и Миша. Ведь в их отсутствие всех красивых девчонок могут разобрать!
Леше Каверину повезло — его отправляют в командировку на Родину. У друзей рождается авантюрный план: Леша должен найти друзьям невест и жениться на них, используя удостоверения ребят. И на все про все у него всего одни сутки…-Сэмпл | КиноПоиск-Источник/Качество: DVDRip-AVC
Формат: MKV
Видео кодек: H.26x
Аудио кодек: AC3
Видео: [email protected], 25,000 кадров/сек, 1443 Кбит/сек
Аудио: 48,0 КГц, 6 каналов, 448 Кбит/сек
Общее
Уникальный идентификатор : 254422718467454863375315460785719624355 (0xBF68087FFC03D205953DB4FFB83E42A3)
Полное имя : F:\pirat.ca\Pjat.nevest.2011.x264.DVDRip.(AVC).ExKinoRay.mkv
Формат : Matroska
Версия формата : Version 2
Размер файла : 1,37 Гбайт
Продолжительность : 1 ч. 43 м.
Общий поток : 1893 Кбит/сек
Дата кодирования : UTC 2011-10-25 16:54:10
Программа кодирования : mkvmerge v4.6.0 ('Still Crazy After All These Years') сборка от Apr 1 2011 21:01:49
Библиотека кодирования : libebml v1.2.0 + libmatroska v1.1.0
Видео
Идентификатор : 1
Формат : AVC
Формат/Информация : Advanced Video Codec
Профиль формата : [email protected]
Параметр CABAC формата : Да
Параметр ReFrames формата : 6 кадров
Идентификатор кодека : V_MPEG4/ISO/AVC
Продолжительность : 1 ч. 43 м.
Битрейт : 1443 Кбит/сек
Ширина : 720 пикселей
Высота : 576 пикселей
Соотношение сторон : 16:9
Частота кадров : 25,000 кадров/сек
Стандарт вещания : PAL
Цветовое пространство : YUV
Субдискретизация насыщенности : 4:2:0
Битовая глубина : 8 бит
Тип развёртки : Прогрессивная
Бит/(Пиксели*Кадры) : 0.139
Размер потока : 1,02 Гбайт (74%)
Библиотека кодирования : x264 core 115 r1937 aa21558
Настройки программы : cabac=1 / ref=6 / deblock=1:-1:-1 / analyse=0x3:0x113 / me=hex / subme=6 / psy=1 / psy_rd=1.00:0.10 / mixed_ref=0 / me_range=16 / chroma_me=1 / trellis=1 / 8x8dct=1 / cqm=0 / deadzone=21,11 / fast_pskip=1 / chroma_qp_offset=-3 / threads=6 / sliced_threads=0 / nr=0 / decimate=1 / interlaced=0 / bluray_compat=0 / constrained_intra=0 / bframes=6 / b_pyramid=2 / b_adapt=2 / b_bias=0 / direct=3 / weightb=1 / open_gop=0 / weightp=0 / keyint=250 / keyint_min=25 / scenecut=40 / intra_refresh=0 / rc_lookahead=30 / rc=2pass / mbtree=1 / bitrate=1443 / ratetol=1.0 / qcomp=0.60 / qpmin=15 / qpmax=47 / qpstep=3 / cplxblur=20.0 / qblur=0.5 / ip_ratio=1.40 / aq=1:1.10
Аудио
Идентификатор : 2
Формат : AC-3
Формат/Информация : Audio Coding 3
Расширение режима : CM (complete main)
Идентификатор кодека : A_AC3
Продолжительность : 1 ч. 43 м.
Вид битрейта : Постоянный
Битрейт : 448 Кбит/сек
Каналы : 6 каналов
Расположение каналов : Front: L C R, Side: L R, LFE
Частота : 48,0 КГц
Битовая глубина : 16 бит
Метод сжатия : С потерями
Размер потока : 331 Мбайт (24%)





Download / Скачать

Хотите скачать бесплатно? Зарегистрируйтесь на сайте (ссылка на регистрацию). Pirat.ca - самый быстрый торрент трекер в рунете!

Как скачивать  ·   Что такое торрент  ·   Рейтинг и ограничения

Пост 17-Ноя-2011 11:15 (спустя 16 минут)

Топик был перенесен из форума Наше Кино в форум Новинки (HD|DVD|BD|TV|SAT|PDTV| - Rips)

Skinwalker
 

Димарик82

Корсар

725

Пост 17-Ноя-2011 17:48 (спустя 6 часов)

[Q] 

спасибо..хороший фильм
[Профиль]  [ЛС] 

Пост 04-Янв-2012 15:04 (спустя 1 месяц 16 дней)

Топик был перенесен из форума Новинки (HD|DVD|BD|TV|SAT|PDTV| - Rips) в форум Российские фильмы

goxakrauter
 

ivan.tratil 67

Корсар

Пост 20-Дек-2012 02:41 (спустя 1 год 1 месяц)

[Q] 

прикольный фильм СПАСИБО
[Профиль]  [ЛС] 

UncleFather

Легенда

Пост 23-Мар-2013 16:20 (спустя 3 месяца 3 дня)

[Q] 


_________________
Одни боялись Пью, другие - Билли Бонса, а меня... меня боялся сам Флинт
[Профиль]  [ЛС] 

and48

Корсар

169

Пост 28-Мар-2013 22:04 (спустя 5 дней)

[Q] 

Хороший фильм! Спасибо!
[Профиль]  [ЛС] 

[email protected].ru

Лоцман

Пост 17-Июл-2013 19:25 (спустя 3 месяца 19 дней)

[Q] 

Мне редко что нравиться. Но этот фильм хороший. Для девушек - то что надо.
[Профиль]  [ЛС] 
Показать сообщения:    
Ответить на тему

Текущее время: Сегодня 01:13

Часовой пояс: GMT + 4



Вы не можете начинать темы
Вы не можете отвечать на сообщения
Вы не можете редактировать свои сообщения
Вы не можете удалять свои сообщения
Вы не можете голосовать в опросах
Вы не можете прикреплять файлы к сообщениям
Вы не можете скачивать файлы

▼ Вниз