ML
     
  Уважаемый Гость!
Вы можете поддержать проект и зарегистрироваться у наших партнеров - онлайн-стратегия MyLands. При регистрации в игре Вы получите код, который сможете активировать после регистрации на pirat.ca и получить 1000 дублонов.

Ваш код:
ef8b3e8cd07bec918273586d22e5aaf18e0ae925
 
     

Туман (Иван Шурховецкий, Артем Аксененко) [2010 г.] (военный, приключения) [DVDRip]

Ответить на тему
 
Автор
Сообщение

Пост 17-Ноя-2011 22:47

[Q] 

dsfas

Корсар

Туман Год выпуска: 2010
Производство: Россия
Жанр: военный, приключения
Продолжительность: 02:31:17
Перевод: Не требуется
Режиссер: Иван Шурховецкий, Артем Аксененко
В ролях: Игорь Шмаков, Василий Ракша, Артем Крестников, Григорий Калинин, Евгений Куршинский, Дмитрий Росляков, Вячеслав Буцков, Светлана Устинова, Алексей Марков, Илья Глинников, Родион Галюченко, Дмитрий Сергин, Иван Лапин, Алексей Ильин

Наши дни. Идут военные учения. Отряд молодых бойцов Российской Армии получает задание совершить двенадцатикилометровый марш-бросок с преодолением водной преграды и с последующим выходом на огневой рубеж для боевых стрельб. Находясь на маршруте, группа бойцов совершает вынужденную остановку и начинает опаздывать. Командир принимает решение срезать дорогу через болото. Во время форсирования на болото опускается густой туман... Группа выходит из болота в районе небольшой деревни, которая не значится на карте, не подозревая, какое испытание уготовила им судьба…
Источник/Качество: DVDRip
Видео кодек: XviD
Аудио кодек: AC3
Видео: 720x368 (1.80:1), 23.976 fps, ~1858 kbps avg
Аудио: 48 kHz, ~192 .00 kbps avg, Front: L R




Общее
Полное имя : Tuman.2010.DVDRip.Pirat.ca.avi
Формат : AVI
Формат/Информация : Audio Video Interleave
Профиль формата : OpenDML
Размер файла : 2,18 Гбайт
Продолжительность : 2 ч. 31 м.
Общий поток : 2062 Кбит/сек
Программа кодирования : VirtualDubMod 1.5.10.2 (build 2540/release)
Видео
Идентификатор : 0
Формат : MPEG-4 Visual
Профиль формата : Advanced [email protected]
Параметр BVOP формата : 2
Параметр QPel формата : Нет
Параметр GMC формата : Без точки перехода
Параметр матрицы формата : Выборочная
Идентификатор кодека : XVID
Идентификатор кодека/Подсказка : XviD
Продолжительность : 2 ч. 31 м.
Битрейт : 1858 Кбит/сек
Ширина : 720 пикселей
Высота : 368 пикселей
Соотношение сторон : 1,957
Частота кадров : 25,000 кадров/сек
Цветовое пространство : YUV
Субдискретизация насыщенности : 4:2:0
Битовая глубина : 8 бит
Тип развёртки : Прогрессивная
Метод сжатия : С потерями
Бит/(Пиксели*Кадры) : 0.280
Размер потока : 1,96 Гбайт (90%)
Библиотека кодирования : XviD 1.2.1 (UTC 2008-12-04)
Аудио
Идентификатор : 1
Формат : AC-3
Формат/Информация : Audio Coding 3
Расширение режима : CM (complete main)
Идентификатор кодека : 2000
Продолжительность : 2 ч. 31 м.
Вид битрейта : Постоянный
Битрейт : 192 Кбит/сек
Каналы : 2 канала
Расположение каналов : Front: L R
Частота : 48,0 КГц
Битовая глубина : 16 бит
Метод сжатия : С потерями
Размер потока : 208 Мбайт (9%)
Выравнивание : Разделение по промежуткам
Продолжительность промежутка : 40 мс. (1,00 видеокадр)
Время предзагрузки промежутка : 500 мс.
Download / Скачать

Хотите скачать бесплатно? Зарегистрируйтесь на сайте (ссылка на регистрацию). Pirat.ca - самый быстрый торрент трекер в рунете!

Как скачивать  ·   Что такое торрент  ·   Рейтинг и ограничения



Последний раз редактировалось: dsfas (2011-11-18 08:59), всего редактировалось 4 раз(а)

Пост 18-Ноя-2011 08:58 (спустя 10 часов)

Топик был перенесен из форума Наше Кино в форум Российские фильмы

Skinwalker
 

dsfas ®

Корсар

313

Пост 18-Ноя-2011 09:29 (спустя 10 часов)

[Q] 

bo
Ушел раздавать...

_________________
[Профиль]  [ЛС] 

dsfas ®

Корсар

313

Пост 18-Ноя-2011 21:42 (спустя 12 часов)

[Q] 

Это я косяк? Скорость раздачи 20 Кб.

_________________
[Профиль]  [ЛС] 

WitFed

Морской Волк

Пост 05-Янв-2012 22:50 (спустя 1 месяц 17 дней)

[Q] 

Спасибо.

_________________
[Профиль]  [ЛС] 

dsfas ®

Корсар

313

Пост 13-Янв-2012 02:31 (спустя 7 дней)

[Q] 


_________________
[Профиль]  [ЛС] 

windj

Корсар

73

Пост 17-Янв-2012 17:51 (спустя 4 дня)

[Q] 

Спасибо!!

_________________
[Профиль]  [ЛС] 

dsfas ®

Корсар

313

Пост 24-Янв-2012 01:06 (спустя 6 дней)

[Q] 

Наливай! :)

_________________
[Профиль]  [ЛС] 

KoJl6aca

Морской Волк

Пост 31-Янв-2012 16:28 (спустя 7 дней)

[Q] 

как фильм??

_________________
[Профиль]  [ЛС] 

dsfas ®

Корсар

313

Пост 03-Фев-2012 20:35 (спустя 3 дня)

[Q] 


_________________
[Профиль]  [ЛС] 

dikiyboss

Морской Волк

415

Пост 09-Май-2012 01:44 (спустя 3 месяца 5 дней)

[Q] 

Спасибки!!!!! az

_________________
Подпись отключена за нарушение правил форума
[Профиль]  [ЛС] 

evgen79

Штурман

Пост 28-Янв-2013 21:52 (спустя 8 месяцев 19 дней)

[Q] 

пожалуйста,дайте раздачу!?очень хоЦа посмотреть
[Профиль]  [ЛС] 

evgen79

Штурман

Пост 28-Янв-2013 22:52 (спустя 59 минут)

[Q] 

спасибо раздающим!
[Профиль]  [ЛС] 

Sergi4

Гроза морей

Пост 18-Фев-2013 14:22 (спустя 20 дней)

[Q] 

[Профиль]  [ЛС] 

UncleTim

Корсар

Пост 22-Фев-2013 15:09 (спустя 4 дня)

[Q] 

[Профиль]  [ЛС] 

TomCatGun

Флибустьер

Пост 16-Мар-2013 10:30 (спустя 21 день)

[Q] 

[Профиль]  [ЛС] 

skif1991

Корсар

307

Пост 28-Май-2013 13:51 (спустя 2 месяца 12 дней)

[Q] 

Не плохой фильм
[Профиль]  [ЛС] 

vlad732007

Корсар

Пост 31-Июл-2013 19:28 (спустя 2 месяца 3 дня)

[Q] 

Спасибо!!! посмотрим, давно хотел
[Профиль]  [ЛС] 

shema34

Лоцман

Пост 05-Авг-2013 21:42 (спустя 5 дней)

[Q] 

Раздающему респект!
[Профиль]  [ЛС] 
Показать сообщения:    
Ответить на тему

Текущее время: Сегодня 18:41

Часовой пояс: GMT + 4



Вы не можете начинать темы
Вы не можете отвечать на сообщения
Вы не можете редактировать свои сообщения
Вы не можете удалять свои сообщения
Вы не можете голосовать в опросах
Вы не можете прикреплять файлы к сообщениям
Вы не можете скачивать файлы

▼ Вниз