ML
     
  Уважаемый Гость!
Вы можете поддержать проект и зарегистрироваться у наших партнеров - онлайн-стратегия MyLands. При регистрации в игре Вы получите код, который сможете активировать после регистрации на pirat.ca и получить 1000 дублонов.

Ваш код:
2a3da67fd641d69eeebb7cb965232435a70eaa24
 
     

Коммуналка (Максим Бриус) [2011 г., Криминал, SATRip]

Ответить на тему
 
Автор
Сообщение

Пост 18-Ноя-2011 17:41

[Q] 

UA4HQW

Флибустьер

Коммуналка
Год выпуска: 2011
Жанр: Криминал
Продолжительность: 01:29:00
Режиссер: Максим Бриус
В ролях: Ксения Скакун, Евгений Пронин, Алексей Осипов, Дарья Чернявская, Ирина Крецу, Виктор Балабанов
Описание: Паша Раевский – лейтенант милиции – развелся с женой и переехал в коммунальную квартиру. Его соседями по коммуналке оказались стриптизерша Вика и недавно вернувшийся после очередной отсидки Виктор. Поначалу отношения соседей складывались почти враждебно. Но случается так, что подруга Вики Ирина становится свидетельницей убийства крупного криминального авторитета Андрона. И в панике приезжает к Вике. Туда же за ней приезжают бандиты. Девушек спасает неожиданно вернувшийся домой Виктор. Он убивает одного из бандитов и вместе с девушками пускается в бега. У беглецов нет другого выхода, кроме как обратиться за помощью к своему соседу Паше. В итоге все жители коммунальной квартиры оказываются втянуты в бандитские разборки. По одиночке им не справиться, и они вынуждены держаться друг друга.
Источник/Качество: SATRip
Формат: AVI
Видео кодек: XviD
Аудио кодек: MP3
Видео: 720x400 (1.80:1), 25 fps, XviD MPEG-4 ~1991 kbps avg, 0.28 bit/pixel
Аудио: 48 kHz, MPEG Layer 3, 2 ch, ~192.00 kbps avg
Общее
Полное имя : Kommunalka.2011.SATRip.[pirat.ca].avi
Формат : AVI
Формат/Информация : Audio Video Interleave
Размер файла : 1,37 Гбайт
Продолжительность : 1 ч. 29 м.
Общий поток : 2190 Кбит/сек
Программа кодирования : VirtualDubMod 1.5.4.1 (build 2178/release)
Библиотека кодирования : VirtualDubMod build 2178/release
Видео
Идентификатор : 0
Формат : MPEG-4 Visual
Профиль формата : Advanced [email protected]
Параметр BVOP формата : Нет
Параметр QPel формата : Нет
Параметр GMC формата : Без точки перехода
Параметр матрицы формата : Выборочная
Идентификатор кодека : XVID
Идентификатор кодека/Подсказка : XviD
Продолжительность : 1 ч. 29 м.
Битрейт : 1991 Кбит/сек
Ширина : 720 пикс.
Высота : 400 пикс.
Соотношение сторон : 16:9
Частота кадров : 25,000 кадр/сек
Цветовое пространство : YUV
Подвыборка цветности : 4:2:0
Битовая глубина : 8 бит
Тип развёртки : Прогрессивная
Метод сжатия : С потерями
Бит/(Пиксели*Кадры) : 0.277
Размер потока : 1,24 Гбайт (91%)
Библиотека кодирования : XviD 72
Аудио
Идентификатор : 1
Формат : MPEG Audio
Версия формата : Version 1
Профиль формата : Layer 3
Режим : Joint stereo
Расширение режима : MS Stereo
Идентификатор кодека : 55
Идентификатор кодека/Подсказка : MP3
Продолжительность : 1 ч. 29 м.
Вид битрейта : Постоянный
Битрейт : 192 Кбит/сек
Каналы : 2 канала
Частота : 48,0 КГц
Метод сжатия : С потерями
Размер потока : 123 Мбайт (9%)
Выравнивание : Соединение по промежуткам
Продолжительность промежутка : 80 мс. (2,00 видеокадра)
Время предзагрузки промежутка : 504 ms
Библиотека кодирования : LAME3.98r
Настройки программы : -m j -V 4 -q 2 -lowpass 18.6 -b 192


Download / Скачать

Хотите скачать бесплатно? Зарегистрируйтесь на сайте (ссылка на регистрацию). Pirat.ca - самый быстрый торрент трекер в рунете!

Как скачивать  ·   Что такое торрент  ·   Рейтинг и ограничения

Пост 19-Ноя-2011 08:48 (спустя 15 часов)

Топик был перенесен из форума Наше Кино в форум Российские фильмы

Skinwalker
 

serg_bmw

Гроза морей

650

Пост 19-Ноя-2011 12:18 (спустя 18 часов)

[Q] 


_________________
[Профиль]  [ЛС] 

петрович6607

Штурман

Пост 27-Ноя-2011 08:54 (спустя 7 дней)

[Q] 

спасибо!!!
[Профиль]  [ЛС] 

hohol541

Корсар

Пост 27-Ноя-2011 09:33 (спустя 39 минут)

[Q] 

спасибо.
[Профиль]  [ЛС] 

lis777

Корсар

Пост 27-Ноя-2011 19:22 (спустя 9 часов)

[Q] 

как фильмец?
[Профиль]  [ЛС] 

qwasca

Морской Волк

359

Пост 28-Ноя-2011 15:13 (спустя 19 часов)

[Q] 

супер

_________________
[Профиль]  [ЛС] 

juretsz

Лоцман

Пост 01-Дек-2011 11:25 (спустя 2 дня 20 часов)

[Q] 

спасибо!!!!!!
[Профиль]  [ЛС] 

briz2222

Штурман

Пост 01-Дек-2011 12:23 (спустя 58 минут)

[Q] 

спасибо за фильм,забираю...
[Профиль]  [ЛС] 

hohol541

Корсар

Пост 28-Дек-2012 20:20 (спустя 1 год)

[Q] 

Спасибо.Надеюсь понравится.
[Профиль]  [ЛС] 

darkbrides

Штурман

Пост 04-Янв-2013 04:49 (спустя 6 дней)

[Q] 

посмотреть рекомендую (для отдыха), начало фильма прикольное, я бы даже сказал неожиданное ap
[Профиль]  [ЛС] 
Показать сообщения:    
Ответить на тему

Текущее время: Сегодня 01:18

Часовой пояс: GMT + 4



Вы не можете начинать темы
Вы не можете отвечать на сообщения
Вы не можете редактировать свои сообщения
Вы не можете удалять свои сообщения
Вы не можете голосовать в опросах
Вы не можете прикреплять файлы к сообщениям
Вы не можете скачивать файлы

▼ Вниз