ML
     
  Уважаемый Гость!
Вы можете поддержать проект и зарегистрироваться у наших партнеров - онлайн-стратегия MyLands. При регистрации в игре Вы получите код, который сможете активировать после регистрации на pirat.ca и получить 1000 дублонов.

Ваш код:
062e2babcc491faeb40d496cf9a498ac3df6cdd0
 
     

Которого не было (Рамиль Салахутдинов) [2011 г., Детектив, драма, мистика, DVDRip]

Ответить на тему
 
Автор
Сообщение

Пост 19-Ноя-2011 18:25

[Q] 

UA4HQW

Флибустьер

Которого не было
Год выпуска: 2011
Жанр: Детектив, драма, мистика
Продолжительность: 01:47:08
Режиссер: Рамиль Салахутдинов
В ролях: Сергей Юшкевич, Полина Агуреева, Дмитрий Поднозов, Юозас Будрайтис, Екатерина Голубева, Юрий Кузнецов (VI), Антон Федоров, Всеволод Николаев, Валерий Кудашкин
Описание: Страх смерти, неразделенная любовь и тайные эксперименты.
Дарья – учительница, вернувшись с работы, находит в собственной квартире чужого мертвого человека. Начинается расследование…
Андрей – исследователь, занимается проблемами природных катаклизмов. Когда-то давно ему нагадали ряд жизненных перипетий. Все они свершились с неумолимой точностью. И вот наступает время последнего предсказания. Смерти. Страх овладевает Андреем, и он обращается к ученому, проводящему тайные эксперименты, с просьбой помочь избежать трагической участи. После долгих уговоров тот соглашается. Вначале все было действительно хорошо. Но однажды Андрей попадает в квартиру незнакомки…
Фильм о страхе смерти, возникающем у мужчин среднего возраста, с обязательным элементом русской тоски, неразделенной любовью, фантастическим элементом как способом развернуть повествование и выверенным авторским взглядом на устройство окружающего мира.
Источник/Качество: DVDRip
Формат: AVI
Видео кодек: XviD
Аудио кодек: AC3
Видео: 720x384 (1.88:1), 25 fps, XviD MPEG-4 ~1371 kbps avg, 0.20 bit/pixel
Аудио: 48 kHz, AC3 Dolby Digital, 3/2 (L,C,R,l,r) + LFE ch, ~448 kbps
Общее
Полное имя : Kotorogo.ne.bylo.2010.DVDRip.[pirat.ca].avi
Формат : AVI
Формат/Информация : Audio Video Interleave
Размер файла : 1,37 Гбайт
Продолжительность : 1 ч. 47 м.
Общий поток : 1826 Кбит/сек
Программа кодирования : VirtualDubMod 1.5.4.1 (build 2178/release)
Библиотека кодирования : VirtualDubMod build 2178/release
Видео
Идентификатор : 0
Формат : MPEG-4 Visual
Профиль формата : Advanced [email protected]
Параметр BVOP формата : 1
Параметр QPel формата : Нет
Параметр GMC формата : Без точки перехода
Параметр матрицы формата : Выборочная
Идентификатор кодека : XVID
Идентификатор кодека/Подсказка : XviD
Продолжительность : 1 ч. 47 м.
Битрейт : 1371 Кбит/сек
Ширина : 720 пикс.
Высота : 384 пикс.
Соотношение сторон : 1,875
Частота кадров : 25,000 кадр/сек
Цветовое пространство : YUV
Подвыборка цветности : 4:2:0
Битовая глубина : 8 бит
Тип развёртки : Прогрессивная
Метод сжатия : С потерями
Бит/(Пиксели*Кадры) : 0.198
Размер потока : 1,03 Гбайт (75%)
Библиотека кодирования : XviD 1.2.1 (UTC 2008-12-04)
Аудио
Идентификатор : 1
Формат : AC-3
Формат/Информация : Audio Coding 3
Расширение режима : CM (complete main)
Идентификатор кодека : 2000
Продолжительность : 1 ч. 47 м.
Вид битрейта : Постоянный
Битрейт : 448 Кбит/сек
Каналы : 6 каналов
Расположение каналов : Front: L C R, Side: L R, LFE
Частота : 48,0 КГц
Битовая глубина : 16 бит
Метод сжатия : С потерями
Размер потока : 343 Мбайт (25%)
Выравнивание : Разделение по промежуткам
Продолжительность промежутка : 96 мс. (2,40 видеокадра)
Время предзагрузки промежутка : 96 ms


Download / Скачать

Хотите скачать бесплатно? Зарегистрируйтесь на сайте (ссылка на регистрацию). Pirat.ca - самый быстрый торрент трекер в рунете!

Как скачивать  ·   Что такое торрент  ·   Рейтинг и ограничения

Пост 19-Ноя-2011 18:57 (спустя 31 минута)

Топик был перенесен из форума Наше Кино в форум Новинки (HD|DVD|BD|TV|SAT|PDTV| - Rips)

Skinwalker
 

despod

Лоцман

Пост 19-Ноя-2011 19:22 (спустя 56 минут)

[Q] 

фильм 2010 года..)))
[Профиль]  [ЛС] 

kubrik

Шкипер

Пост 19-Ноя-2011 19:49 (спустя 26 минут)

[Q] 

опробуем,заценим. респект раздающему!

_________________
до чего дошел прогресс...
[Профиль]  [ЛС] 

rrtryytyew4

Морской Волк

32

Пост 19-Ноя-2011 21:52 (спустя 2 часа 3 минуты)

[Q] 

спасибо
[Профиль]  [ЛС] 

Пост 04-Янв-2012 15:04 (спустя 1 месяц 14 дней)

Топик был перенесен из форума Новинки (HD|DVD|BD|TV|SAT|PDTV| - Rips) в форум Российские фильмы

goxakrauter
 

Wolf111

57049

Пост 09-Янв-2013 17:49 (спустя 1 год 1 месяц)

[Q] 

[Профиль]  [ЛС] 
Показать сообщения:    
Ответить на тему

Текущее время: Сегодня 17:43

Часовой пояс: GMT + 4



Вы не можете начинать темы
Вы не можете отвечать на сообщения
Вы не можете редактировать свои сообщения
Вы не можете удалять свои сообщения
Вы не можете голосовать в опросах
Вы не можете прикреплять файлы к сообщениям
Вы не можете скачивать файлы

▼ Вниз