ML
     
  Уважаемый Гость!
Вы можете поддержать проект и зарегистрироваться у наших партнеров - онлайн-стратегия MyLands. При регистрации в игре Вы получите код, который сможете активировать после регистрации на pirat.ca и получить 1000 дублонов.

Ваш код:
2fd4e750dd89cae3a36ea360f2b345ccfeb562d3
 
     

Сволочи (Александр Атанесян) [2006 г., Военная драма, DVDRip]

Ответить на тему
 
Автор
Сообщение

Пост 20-Ноя-2011 06:55

[Q] 

hevard

Гроза морей

Сволочи
Год выпуска: 2006
Жанр: Военная драма
Продолжительность: 01:37:14
Режиссер: Александр Атанесян
В ролях: Андрей Панин, Андрей Краско, Александр Головин, Сергей Рыченков, Ростислав Бершауэр, А. Бобров, Олег Буганов, Кирилл Емельянов, Митя Горевой, Владимир Кашпур
Описание: 1943 год. Полковник Вишневецкий получает правительственное задание: подготовить диверсионную группу бойцов-смертников, которая должна блокировать действия отборных немецких соединений «Эдельвейс». Группа набирается из отчаянных мальчишек 14—15 лет, сирот, которых никто не будет искать.
Подростков отправляют в потайной горный лагерь, где они проходят специальную подготовку. Им предназначено уничтожить фашистскую военную базу и погибнуть, поскольку «носители особо секретной информации» не должны оставаться в живых.-РАССКАЗ-
НОЧЬ. АЛМА-АТА СОРОК ТРЕТЬЕГО...
Была ночь... Была окраина полуголодной, но спасительной Алма-Аты, забитой эвакуированными, военными госпиталями, изнемогавшей от жуликов-интендантов, семейных трагедий, спекуляции и жестоких детских банд карманников, «домушников», малолетних налетчиков и несовершеннолетних убийц...
По-южному темной, непроглядной ночью под негромкое журчание арыков мальчишка со шрамом через все лицо сидел на облучке казахской арбы с высокими бортами, которую тащил самый обыкновенный степной ишак.
Арба была чуть ли не до половины загружена, и груз этот от посторонних глаз прикрывал брошенный сверху брезент.
Пасть у ишака была замотана тряпьем. Он тряс головой, силясь сбросить с себя этот намордник, но мальчишка со шрамом огревал ишака длинным кнутом и тихо приговаривал:
— Ну, ты, {мат}!.. Не дергайся, как свинья на веревке. Заложить всех хочешь, падла?! Вперед смотри, мудила...
Источник/Качество: DVDRip
Видео кодек: XviD
Видео: 720x400 (1.80:1), 25 fps, XviD build 63 ~1745 kbps avg, 0.24 bit/pixel
Аудио: 48 kHz, AC3 Dolby Digital, 3/2 (L,C,R,l,r) + LFE ch, ~384 kbps-
General
Complete name : Сволочи.avi
Format : AVI
Format/Info : Audio Video Interleave
File size : 1.45 GiB
Duration : 1h 37mn
Overall bit rate : 2 139 Kbps
Movie name : Сволочи (2006) HD-DVDRip
Director : Vиkt0R
Genre : Action/Drama/War
Writing application : VirtualDubModRus 1.5.10.2 (build 2542/release)
Video
ID : 0
Format : MPEG-4 Visual
Format profile : Advanced [email protected]
Format settings, BVOP : 1
Format settings, QPel : No
Format settings, GMC : No warppoints
Format settings, Matrix : Custom
Codec ID : XVID
Codec ID/Hint : XviD
Duration : 1h 37mn
Bit rate : 1 745 Kbps
Width : 720 pixels
Height : 400 pixels
Display aspect ratio : 16:9
Frame rate : 25.000 fps
Color space : YUV
Chroma subsampling : 4:2:0
Bit depth : 8 bits
Scan type : Progressive
Compression mode : Lossy
Bits/(Pixel*Frame) : 0.242
Stream size : 1.19 GiB (82%)
Writing library : XviD 63
Audio
ID : 1
Format : AC-3
Format/Info : Audio Coding 3
Mode extension : CM (complete main)
Codec ID : 2000
Duration : 1h 37mn
Bit rate mode : Constant
Bit rate : 384 Kbps
Channel(s) : 6 channels
Channel positions : Front: L C R, Side: L R, LFE
Sampling rate : 48.0 KHz
Bit depth : 16 bits
Compression mode : Lossy
Stream size : 267 MiB (18%)
Alignment : Split accross interleaves
Interleave, duration : 40 ms (1.00 video frame)
Interleave, preload duration : 500 ms
-




-
Download / Скачать

Хотите скачать бесплатно? Зарегистрируйтесь на сайте (ссылка на регистрацию). Pirat.ca - самый быстрый торрент трекер в рунете!

Как скачивать  ·   Что такое торрент  ·   Рейтинг и ограничения

Пост 20-Ноя-2011 07:51 (спустя 55 минут)

Топик был перенесен из форума Наше Кино в форум Российские фильмы

Skinwalker
 

rrtryytyew4

Морской Волк

32

Пост 20-Ноя-2011 14:10 (спустя 7 часов)

[Q] 

Не для слабонервных. Показаны реалии войны.
[Профиль]  [ЛС] 

Александр44

Корсар

Пост 18-Янв-2012 00:10 (спустя 1 месяц 27 дней)

[Q] 

да уж...
[Профиль]  [ЛС] 

chicha95

Лоцман

Пост 05-Фев-2012 17:02 (спустя 18 дней)

[Q] 

классный фильм
[Профиль]  [ЛС] 

ravinmtv

Морской Волк

Пост 07-Фев-2012 17:43 (спустя 2 дня)

[Q] 

[Профиль]  [ЛС] 

Ding0

Штурман

122

Пост 12-Фев-2012 19:29 (спустя 5 дней)

[Q] 

спасибо
[Профиль]  [ЛС] 

pinaszxc

Шкипер

Пост 20-Фев-2012 12:57 (спустя 7 дней)

[Q] 

[Профиль]  [ЛС] 

SERQ

Лоцман

Пост 13-Мар-2012 15:31 (спустя 22 дня)

[Q] 

спасибо
[Профиль]  [ЛС] 

Эмиль86

Штурман

Пост 29-Окт-2012 00:45 (спустя 7 месяцев 15 дней)

[Q] 

Раздайте кто нибудь пожалуйста)
[Профиль]  [ЛС] 

саня 605

Лоцман

Пост 09-Мар-2013 20:14 (спустя 4 месяца 11 дней)

[Q] 

[Профиль]  [ЛС] 

srg078rus

Корсар

97

Пост 25-Авг-2014 18:06 (спустя 1 год 5 месяцев)

[Q] 

Качну)) Гляну еще разок)) Спасибо!

_________________
[Профиль]  [ЛС] 
Показать сообщения:    
Ответить на тему

Текущее время: Сегодня 14:12

Часовой пояс: GMT + 4



Вы не можете начинать темы
Вы не можете отвечать на сообщения
Вы не можете редактировать свои сообщения
Вы не можете удалять свои сообщения
Вы не можете голосовать в опросах
Вы не можете прикреплять файлы к сообщениям
Вы не можете скачивать файлы

▼ Вниз