ML
     
  Уважаемый Гость!
Вы можете поддержать проект и зарегистрироваться у наших партнеров - онлайн-стратегия MyLands. При регистрации в игре Вы получите код, который сможете активировать после регистрации на pirat.ca и получить 1000 дублонов.

Ваш код:
2fd4e750dd89cae3a36ea360f2b345ccfeb562d3
 
     

Эта женщина ко мне (Петр Степин) [2011 г., Мелодрама, SATRip]

Ответить на тему
 
Автор
Сообщение

Пост 20-Ноя-2011 15:42

[Q] 

UA4HQW

Флибустьер

Эта женщина ко мне
Год выпуска: 2011
Жанр: Мелодрама
Продолжительность: 01:40:33
Режиссер: Петр Степин
В ролях: Алексей Барабаш, Глафира Тарханова, Олег Гарбуз, Дмитрий Мухин, Ольга Бурлакова, Елена Дубровская, Евгения Кульбачная, Дарья Баранова, Виктор Васильев, Алёна Козырева, Светлана Зеленковская
Описание: Типичный провинциальный городок Павлогорск жил спокойно до тех пор, пока московский бизнесмен Сергей не вздумал выкупить ткацкую фабрику, на которой трудились местные девушки. Ни жители Павлогорска, ни компаньоны Сергея и предположить не могли, что на пути «почти законного» желания столичного бизнесмена встанет простая швея Настя Рогожкина…
Кинопоиск
Источник/Качество: SATRip
Формат: AVI
Видео кодек: XviD
Аудио кодек: MP3
Видео: 720x416 (1.73:1), 25 fps, XviD MPEG-4 ~1747 kbps avg, 0.23 bit/pixel
Аудио: 48 kHz, MPEG Layer 3, 1 ch, ~192.00 kbps avg
Общее
Полное имя : Eta.zhenschina.komne.2011.SATRip.[pirat.ca].avi
Формат : AVI
Формат/Информация : Audio Video Interleave
Размер файла : 1,37 Гбайт
Продолжительность : 1 ч. 40 м.
Общий поток : 1947 Кбит/сек
Программа кодирования : VirtualDubMod 1.5.4.1 (build 2178/release)
Библиотека кодирования : VirtualDubMod build 2178/release
Видео
Идентификатор : 0
Формат : MPEG-4 Visual
Профиль формата : Advanced [email protected]
Параметр BVOP формата : 1
Параметр QPel формата : Нет
Параметр GMC формата : Без точки перехода
Параметр матрицы формата : Выборочная
Идентификатор кодека : XVID
Идентификатор кодека/Подсказка : XviD
Продолжительность : 1 ч. 40 м.
Битрейт : 1748 Кбит/сек
Ширина : 720 пикс.
Высота : 416 пикс.
Соотношение сторон : 16:9
Частота кадров : 25,000 кадр/сек
Цветовое пространство : YUV
Подвыборка цветности : 4:2:0
Битовая глубина : 8 бит
Тип развёртки : Прогрессивная
Метод сжатия : С потерями
Бит/(Пиксели*Кадры) : 0.233
Размер потока : 1,23 Гбайт (90%)
Библиотека кодирования : XviD 64
Аудио
Идентификатор : 1
Формат : MPEG Audio
Версия формата : Version 1
Профиль формата : Layer 3
Идентификатор кодека : 55
Идентификатор кодека/Подсказка : MP3
Продолжительность : 1 ч. 40 м.
Вид битрейта : Постоянный
Битрейт : 192 Кбит/сек
Каналы : 1 канал
Частота : 48,0 КГц
Метод сжатия : С потерями
Размер потока : 138 Мбайт (10%)
Выравнивание : Соединение по промежуткам
Продолжительность промежутка : 80 мс. (2,00 видеокадра)
Время предзагрузки промежутка : 504 ms
Библиотека кодирования : LAME3.97
Настройки программы : -m m -V 4 -q 2 -lowpass 20.5 -b 192


Download / Скачать

Хотите скачать бесплатно? Зарегистрируйтесь на сайте (ссылка на регистрацию). Pirat.ca - самый быстрый торрент трекер в рунете!

Как скачивать  ·   Что такое торрент  ·   Рейтинг и ограничения

Пост 20-Ноя-2011 16:39 (спустя 57 минут)

Топик был перенесен из форума Наше Кино в форум Российские фильмы

Skinwalker
 

qwasca

Морской Волк

359

Пост 25-Ноя-2011 00:01 (спустя 4 дня)

[Q] 

скорость супер )))

_________________
[Профиль]  [ЛС] 

Wolf111

57057

Пост 09-Янв-2013 17:48 (спустя 1 год 1 месяц)

[Q] 

[Профиль]  [ЛС] 
Показать сообщения:    
Ответить на тему

Текущее время: Сегодня 14:11

Часовой пояс: GMT + 4



Вы не можете начинать темы
Вы не можете отвечать на сообщения
Вы не можете редактировать свои сообщения
Вы не можете удалять свои сообщения
Вы не можете голосовать в опросах
Вы не можете прикреплять файлы к сообщениям
Вы не можете скачивать файлы

▼ Вниз