ML
     
  Уважаемый Гость!
Вы можете поддержать проект и зарегистрироваться у наших партнеров - онлайн-стратегия MyLands. При регистрации в игре Вы получите код, который сможете активировать после регистрации на pirat.ca и получить 1000 дублонов.

Ваш код:
ec3b26eefbcdc72e08e9fd33c6846bb2ca10f8b1
 
     

All inclusive, или Всё включено (Эдуард Радзюкевич) [2011 г., комедия, HDRip]

Ответить на тему
 
Автор
Сообщение

Пост 28-Окт-2011 19:19

[Q] 

lens5961

Лоцман

All inclusive, или Всё включено
Год выпуска: 2011
Жанр: комедия
Продолжительность: 01:36:36
Режиссер: Эдуард Радзюкевич
В ролях: Михаил Беспалов, Федор Добронравов, Роман Мадянов, Эдуард Радзюкевич, Андрей Кайков, Григорий Сиятвинда, Нонна Гришаева, Анна Ардова, Марина Александрова, Мирослава Карпович
Описание: Жизнь Андрея — владельца дорогой и востребованной ветеринарной клиники для домашних животных с Рублевки — определенно удалась. Мало того, он не обделен вниманием и прекрасных хозяек милых зверюшек. Но страстная ночь с женой олигарха Эвелиной меняет все: ревнивый муж Эдик очень доходчиво объясняет, что изменит сладкую жизнь успешного бизнесмена. Единственный выход — это побег из страны. И Андрей уезжает в Турцию по программе «Все включено», не подозревая, что в нее включено намного больше, чем кажется на первый взгляд. За ним по пятам следует австрийский киллер Рудольф, а солнечные пляжи таят самое главное испытание в жизни…
Качество: HDRip
Формат: AVI
Видео кодек: XviD
Аудио кодек: AC3
Видео: 720x304 (2.37:1), 23.976 fps, XviD MPEG-4 ~1564 kbps avg, 0.40 bit/pixel
Аудио: 48 kHz, AC3 Dolby Digital, 3/2 (L,C,R,l,r) + LFE ch, ~448 kbps
General
Complete name : E:\p2p\All.inclusive.ili.vse.vklucheno.2011.HDRip.avi
Format : AVI
Format/Info : Audio Video Interleave
File size : 1.36 GiB
Duration : 1h 36mn
Overall bit rate : 2 022 Kbps
Writing application : VirtualDubMod 1.5.10.3 | www.virtualdub-fr.org || (build 2550/release)
Writing library : VirtualDubMod build 2550/release
Video
ID : 0
Format : MPEG-4 Visual
Format profile : Advanced [email protected]
Format settings, BVOP : Yes
Format settings, QPel : No
Format settings, GMC : No warppoints
Format settings, Matrix : Default (H.263)
Codec ID : XVID
Codec ID/Hint : XviD
Duration : 1h 36mn
Bit rate : 1 565 Kbps
Width : 720 pixels
Height : 304 pixels
Display aspect ratio : 2.35:1
Frame rate : 23.976 fps
Color space : YUV
Chroma subsampling : 4:2:0
Bit depth : 8 bits
Scan type : Progressive
Compression mode : Lossy
Bits/(Pixel*Frame) : 0.298
Stream size : 1.06 GiB (77%)
Writing library : XviD 1.2.1 (UTC 2008-12-04)
Audio
ID : 1
Format : AC-3
Format/Info : Audio Coding 3
Mode extension : CM (complete main)
Codec ID : 2000
Duration : 1h 36mn
Bit rate mode : Constant
Bit rate : 448 Kbps
Channel(s) : 6 channels
Channel positions : Front: L C R, Side: L R, LFE
Sampling rate : 48.0 KHz
Bit depth : 16 bits
Compression mode : Lossy
Stream size : 310 MiB (22%)
Alignment : Split accross interleaves
Interleave, duration : 42 ms (1.00 video frame)
Interleave, preload duration : 500 ms


Download / Скачать

Хотите скачать бесплатно? Зарегистрируйтесь на сайте (ссылка на регистрацию). Pirat.ca - самый быстрый торрент трекер в рунете!

Как скачивать  ·   Что такое торрент  ·   Рейтинг и ограничения



Последний раз редактировалось: lens5961 (2011-10-29 11:18), всего редактировалось 1 раз

Пост 29-Окт-2011 03:51 (спустя 8 часов)

Топик был перенесен из форума Наше Кино в форум Российские фильмы

Чужая
 

evilsan39

Корсар

1231

Пост 17-Янв-2012 18:39 (спустя 2 месяца 19 дней)

[Q] 

Ожидал большего от фильма

_________________

[Профиль]  [ЛС] 

KIRST

Корсар

Пост 20-Янв-2012 20:45 (спустя 3 дня)

[Q] 

Спасибо.
[Профиль]  [ЛС] 

KOS1612

Корсар

Пост 23-Янв-2012 09:39 (спустя 2 дня 12 часов)

[Q] 

Можно смотреть
[Профиль]  [ЛС] 

Grand Zero

Морской Волк

Пост 04-Мар-2012 11:39 (спустя 1 месяц 12 дней)

[Q] 

супер
[Профиль]  [ЛС] 

ivan.tratil 67

Корсар

Пост 20-Дек-2012 02:36 (спустя 9 месяцев 15 дней)

[Q] 

[Профиль]  [ЛС] 

vyacheslav

Корсар

Пост 28-Окт-2013 22:29 (спустя 10 месяцев 8 дней)

[Q] 

Спасибо!!! здорово
[Профиль]  [ЛС] 

Евлампий

Лоцман

Пост 14-Ноя-2013 19:12 (спустя 16 дней)

[Q] 

ну, когда уже второй фильм появится? Лови бочку
[Профиль]  [ЛС] 

Dysy

Морской Волк

Пост 11-Дек-2013 00:48 (спустя 26 дней)

[Q] 

cf anime105
[Профиль]  [ЛС] 

tyz82

Шкипер

Пост 08-Янв-2014 13:27 (спустя 28 дней)

[Q] 

1 часть классная 2 полное гуано........

_________________
Не так страшен Русский танк, как его пьяный экипаж !!!
[Профиль]  [ЛС] 

grubov

Морской Волк

54

Пост 24-Фев-2014 01:30 (спустя 1 месяц 15 дней)

[Q] 

ржачный фильм)))
[Профиль]  [ЛС] 
Показать сообщения:    
Ответить на тему

Текущее время: Сегодня 03:51

Часовой пояс: GMT + 4



Вы не можете начинать темы
Вы не можете отвечать на сообщения
Вы не можете редактировать свои сообщения
Вы не можете удалять свои сообщения
Вы не можете голосовать в опросах
Вы не можете прикреплять файлы к сообщениям
Вы не можете скачивать файлы

▼ Вниз