ML
     
  Уважаемый Гость!
Вы можете поддержать проект и зарегистрироваться у наших партнеров - онлайн-стратегия MyLands. При регистрации в игре Вы получите код, который сможете активировать после регистрации на pirat.ca и получить 1000 дублонов.

Ваш код:
1a5b0a965618b2c406d4279ec9924ee6282c60cf
 
     

Бабло (Константин Буслов) [2011 г., комедия, криминал, HDRip]

Ответить на тему
 
Автор
Сообщение

Пост 22-Ноя-2011 17:20

[Q] 

zyyx

--Бабло
«Кино для тех, кто живет в 10-е»
-- Год выпуска: 2011
Мировая премьера: 13 октября 2011
Российская премьера: 13 октября 2011, «Наше Кино»
Дата выхода DVD: 22 ноября 2011, «Lizard Cinema Trade»
Дата выхода Blu-Ray: 22 ноября 2011, «Lizard Cinema Trade»
Страна: Россия
Жанр: комедия, криминал
Продолжительность: 01:31:59
Перевод: Не требуется [Лицензия]
Режиссер: Константин Буслов
В ролях: Мария Берсенева, Роман Мадянов, Гия Гогишвили, Георгий Гургулия, Михаил Месхи, Яков Кучеревский, Владимир Сычев, Кирилл Сафонов, Сергей Насибов, Сергей Болотаев
Описание: Москва. Наши дни. В центре города из машины двое воришек крадут сумку с миллионом евро, думая, что им, наконец, повезло, и даже не представляя, во что на самом деле они ввязались. За деньгами начинается настоящая охота. Перед искушением не может устоять никто. Сумма в виде двух пачек денег по полмиллиона евро делает абсолютно разных людей одинаковыми в своих поступках и желаниях: А началось все с того, что «миллионщик» Григорий не захотел честно платить налоги.-Сэмпл | IMDB | КиноПоиск-Источник/Качество: HDRip
Формат: AVI
Видео кодек: XviD
Аудио кодек: AC3
Видео: 720x384 (1.88:1), 23.976 fps, XviD MPEG-4, 1669 kbps avg, 0.25 bit/pixel
Аудио: 48 kHz, AC3 Dolby Digital, 3/2 (L,C,R,l,r) + LFE ch, 448 kbps
Общее
Полное имя : F:\pirat.ca\Babl0.2011.O.HDRip.1400MB.avi
Формат : AVI
Формат/Информация : Audio Video Interleave
Размер файла : 1,37 Гбайт
Продолжительность : 1 ч. 31 м.
Общий поток : 2127 Кбит/сек
Программа кодирования : VirtualDubMod 1.5.10.3 | www.virtualdub-fr.org || (build 2550/release)
Библиотека кодирования : VirtualDubMod build 2550/release
Видео
Идентификатор : 0
Формат : MPEG-4 Visual
Профиль формата : Advanced [email protected]
Параметр BVOP формата : 2
Параметр QPel формата : Нет
Параметр GMC формата : Без точки перехода
Параметр матрицы формата : Default (H.263)
Режим смешивания : Сжатый битовый поток
Идентификатор кодека : XVID
Идентификатор кодека/Подсказка : XviD
Продолжительность : 1 ч. 31 м.
Битрейт : 1670 Кбит/сек
Ширина : 720 пикселей
Высота : 384 пикселя
Соотношение сторон : 1,875
Частота кадров : 23,976 кадра/сек
Цветовое пространство : YUV
Субдискретизация насыщенности : 4:2:0
Битовая глубина : 8 бит
Тип развёртки : Прогрессивная
Метод сжатия : С потерями
Бит/(Пиксели*Кадры) : 0.252
Размер потока : 1,07 Гбайт (78%)
Библиотека кодирования : XviD 64
Аудио
Идентификатор : 1
Формат : AC-3
Формат/Информация : Audio Coding 3
Расширение режима : CM (complete main)
Идентификатор кодека : 2000
Продолжительность : 1 ч. 31 м.
Вид битрейта : Постоянный
Битрейт : 448 Кбит/сек
Каналы : 6 каналов
Расположение каналов : Front: L C R, Side: L R, LFE
Частота : 48,0 КГц
Битовая глубина : 16 бит
Метод сжатия : С потерями
Размер потока : 295 Мбайт (21%)
Выравнивание : Разделение по промежуткам
Продолжительность промежутка : 42 мс. (1,00 видеокадр)
Время предзагрузки промежутка : 500 мс.


Download / Скачать

Хотите скачать бесплатно? Зарегистрируйтесь на сайте (ссылка на регистрацию). Pirat.ca - самый быстрый торрент трекер в рунете!

Как скачивать  ·   Что такое торрент  ·   Рейтинг и ограничения



Последний раз редактировалось: zyyx (2011-11-22 17:38), всего редактировалось 2 раз(а)

Пост 22-Ноя-2011 17:33 (спустя 13 минут)

Топик был перенесен из форума Наше Кино в форум Новинки (HD|DVD|BD|TV|SAT|PDTV| - Rips)

Skinwalker
 

Luzhok

Легенда

Пост 22-Ноя-2011 18:21 (спустя 1 час 1 минута)

[Q] 

zyyx
спасибо!
[Профиль]  [ЛС] 

EDVAR

Легенда

Пост 22-Ноя-2011 19:05 (спустя 43 минуты)

[Q] 

Благодарю за фильм!!!

_________________
"Как других судить-вы судьи.Как себя-вы адвокаты"
[Профиль]  [ЛС] 

dimonpa

Гроза морей

Пост 22-Ноя-2011 20:49 (спустя 1 час 44 минуты)

[Q] 

Спасибо !!!
[Профиль]  [ЛС] 

J. Silver

Шкипер

604

Пост 02-Фев-2012 21:48 (спустя 2 месяца 10 дней)

[Q] 


_________________
[Профиль]  [ЛС] 
Показать сообщения:    
Ответить на тему

Текущее время: Сегодня 23:53

Часовой пояс: GMT + 4



Вы не можете начинать темы
Вы не можете отвечать на сообщения
Вы не можете редактировать свои сообщения
Вы не можете удалять свои сообщения
Вы не можете голосовать в опросах
Вы не можете прикреплять файлы к сообщениям
Вы не можете скачивать файлы

▼ Вниз