ML
     
  Уважаемый Гость!
Вы можете поддержать проект и зарегистрироваться у наших партнеров - онлайн-стратегия MyLands. При регистрации в игре Вы получите код, который сможете активировать после регистрации на pirat.ca и получить 1000 дублонов.

Ваш код:
2a3da67fd641d69eeebb7cb965232435a70eaa24
 
     

Беременный (Сарик Андреасян) [2011 г., комедия, DVDRip-AVC]

Ответить на тему
 
Автор
Сообщение

Пост 23-Ноя-2011 01:03

[Q] 

zyyx

--Беременный-- Год выпуска: 2011
Мировая премьера: 21 июля 2011
Российская премьера: 8 сентября 2011, «Каропрокат»
Дата выхода DVD: 6 октября 2011, «Новый Диск»
Дата выхода Blu-Ray: 24 ноября 2011, «Новый Диск»
Страна: Россия
Жанр: комедия
Продолжительность: 01:20:33
Перевод: Не требуется [Лицензия]
Режиссер: Сарик Андреасян
В ролях: Дмитрий Дюжев, Михаил Галустян, Анна Седокова, Вилле Хаапасало, Светлана Ходченкова, Дмитрий Шаракоис, Дмитрий Хрусталев, Виктор Васильев, Валентин Смирнитский, Людмила Артемьева
Описание: Главный герой — ведущий новостей на музыкальном канале Сергей Добролюбов. Своим консерватизмом он явно выбивается из коллектива модного канала. Его скепсис по отношению к чему-то новому — повод для насмешек коллег. Он точно не «звезда» канала.
Сергей с женой очень хотят ребенка, но у них есть с этим проблемы. Помочь им может чудо, но Сергей в чудеса не верит… до определенного момента.
Чудесным образом желание Сергея иметь ребенка исполняется… он беременеет?! Теперь уже нашему герою предстоит выступить перед близкими живым доказательством того, что чудеса случаются! Особенно символично, что эту новость жена, родители, брат, друг Жора узнали за ужином в честь Дня защитников Отечества. У последнего оказался вполне практичный подход к чуду. Жора убедил Сергея, что беременность не повод скрываться, а возможность обрести славу и деньги. Шоу «Беременный» становится самым популярным телевизионным проектом, а его главный герой — Сергей Добролюбов — настоящей звездой. Но совмещение статусов «мужчины, ждущего ребенка» и «звезды» оказывается непростой задачей.-Сэмпл | КиноПоиск-Источник/Качество: DVDRip-AVC
Формат: MKV
Видео кодек: H.26x
Аудио кодек: AC3
Видео: [email protected] (2,35:1); 25,000 fps; 1987 kbps; 0.251 bit/pixel
Аудио: AC3, 6 ch., 48 kHz, ~448.00 kbps
Общее
Уникальный идентификатор : 223887529567801170194996866903432347145 (0xA86F2B73E17DDE0BAF5A48C44C75BE09)
Полное имя : F:\pirat.ca\Beremennyi.2011.DVDRip.x264.potroks.mkv
Формат : Matroska
Версия формата : Version 2
Размер файла : 1,37 Гбайт
Продолжительность : 1 ч. 20 м.
Общий поток : 2433 Кбит/сек
Название фильма : -=POTROKS=-
Дата кодирования : UTC 2011-10-01 03:48:53
Программа кодирования : mkvmerge v4.9.1 ('Ich will') сборка от Jul 11 2011 23:53:15
Библиотека кодирования : libebml v1.2.1 + libmatroska v1.1.1
Видео
Идентификатор : 1
Формат : AVC
Формат/Информация : Advanced Video Codec
Профиль формата : [email protected]
Параметр CABAC формата : Да
Параметр ReFrames формата : 12 кадров
Идентификатор кодека : V_MPEG4/ISO/AVC
Продолжительность : 1 ч. 20 м.
Битрейт : 1987 Кбит/сек
Ширина : 720 пикселей
Высота : 440 пикселей
Соотношение сторон : 2,35:1
Соотношение сторон в оригинале : 2,35:1
Частота кадров : 25,000 кадров/сек
Цветовое пространство : YUV
Субдискретизация насыщенности : 4:2:0
Битовая глубина : 8 бит
Тип развёртки : Прогрессивная
Бит/(Пиксели*Кадры) : 0.251
Размер потока : 1,09 Гбайт (80%)
Библиотека кодирования : x264 core 115 r1937 aa21558
Настройки программы : cabac=1 / ref=12 / deblock=1:-2:-1 / analyse=0x3:0x133 / me=umh / subme=9 / psy=1 / psy_rd=1.00:0.10 / mixed_ref=1 / me_range=32 / chroma_me=1 / trellis=2 / 8x8dct=1 / cqm=0 / deadzone=21,11 / fast_pskip=1 / chroma_qp_offset=-3 / threads=9 / sliced_threads=0 / nr=0 / decimate=1 / interlaced=0 / bluray_compat=0 / constrained_intra=0 / bframes=3 / b_pyramid=2 / b_adapt=2 / b_bias=0 / direct=3 / weightb=1 / open_gop=0 / weightp=2 / keyint=250 / keyint_min=25 / scenecut=40 / intra_refresh=0 / rc_lookahead=60 / rc=2pass / mbtree=1 / bitrate=1987 / ratetol=1.0 / qcomp=0.60 / qpmin=0 / qpmax=69 / qpstep=4 / cplxblur=20.0 / qblur=0.5 / ip_ratio=1.40 / aq=1:1.20
Аудио
Идентификатор : 2
Формат : AC-3
Формат/Информация : Audio Coding 3
Расширение режима : CM (complete main)
Идентификатор кодека : A_AC3
Продолжительность : 1 ч. 20 м.
Вид битрейта : Постоянный
Битрейт : 448 Кбит/сек
Каналы : 6 каналов
Расположение каналов : Front: L C R, Side: L R, LFE
Частота : 48,0 КГц
Битовая глубина : 16 бит
Метод сжатия : С потерями
Размер потока : 258 Мбайт (18%)
Язык : Russian









Download / Скачать

Хотите скачать бесплатно? Зарегистрируйтесь на сайте (ссылка на регистрацию). Pirat.ca - самый быстрый торрент трекер в рунете!

Как скачивать  ·   Что такое торрент  ·   Рейтинг и ограничения

Пост 23-Ноя-2011 07:30 (спустя 6 часов)

Топик был перенесен из форума Наше Кино в форум Новинки (HD|DVD|BD|TV|SAT|PDTV| - Rips)

Skinwalker
 

zekos

Лоцман

Пост 24-Ноя-2011 00:22 (спустя 23 часа)

[Q] 

Фильм на один раз, есть несколько моментов где можно посмеяться...
[Профиль]  [ЛС] 

ChesterKsta

Штурман

Пост 24-Ноя-2011 10:06 (спустя 9 часов)

[Q] 

Актерский состав неплохой, но вопрос стоит ли смотреть...
[Профиль]  [ЛС] 

Vlad__treker

Морской Волк

184

Пост 29-Ноя-2011 16:13 (спустя 5 дней)

[Q] 

zyyx, спс скачаю к мои русским фильмам, которые ой как меня впечатляют...))

_________________
...:::Pirat.ca:::...
..:::The Best:::...
[Профиль]  [ЛС] 

GarySk

Корсар

Пост 01-Дек-2011 17:31 (спустя 2 дня 1 час)

[Q] 

Спасибо!!
[Профиль]  [ЛС] 

evgen446

Штурман

Пост 11-Фев-2012 21:02 (спустя 2 месяца 10 дней)

[Q] 

Да, действительно "на раз". Но всё равно спасибо!!!
[Профиль]  [ЛС] 

agamemnen

Шкипер

Пост 12-Фев-2012 01:08 (спустя 4 часа)

[Q] 

[Профиль]  [ЛС] 

hohol541

Корсар

Пост 29-Дек-2012 10:09 (спустя 10 месяцев 17 дней)

[Q] 

Спасибо раздающему.А вот Всем качать-очень сомневаюсь.
[Профиль]  [ЛС] 

E-RTY

Флибустьер

30

Пост 01-Янв-2013 19:13 (спустя 3 дня)

[Q] 

качать Этот фильм можно только для Того что б поддержавть Аффтора раздачи!!!
[Профиль]  [ЛС] 

UncleFather

Легенда

Пост 23-Мар-2013 16:14 (спустя 2 месяца 21 день)

[Q] 


_________________
Одни боялись Пью, другие - Билли Бонса, а меня... меня боялся сам Флинт
[Профиль]  [ЛС] 
Показать сообщения:    
Ответить на тему

Текущее время: Сегодня 01:17

Часовой пояс: GMT + 4



Вы не можете начинать темы
Вы не можете отвечать на сообщения
Вы не можете редактировать свои сообщения
Вы не можете удалять свои сообщения
Вы не можете голосовать в опросах
Вы не можете прикреплять файлы к сообщениям
Вы не можете скачивать файлы

▼ Вниз