ML
     
  Уважаемый Гость!
Вы можете поддержать проект и зарегистрироваться у наших партнеров - онлайн-стратегия MyLands. При регистрации в игре Вы получите код, который сможете активировать после регистрации на pirat.ca и получить 1000 дублонов.

Ваш код:
1a5b0a965618b2c406d4279ec9924ee6282c60cf
 
     

Свадьба по обмену (Дмитрий Грачев) [2011 г., мелодрама, комедия, DVDRip-AVC]

Ответить на тему
 
Автор
Сообщение

Пост 23-Ноя-2011 01:23

[Q] 

zyyx

--Свадьба по обмену
«Любовь не предлагать!»
-- Год выпуска: 2011
Мировая премьера: 21 апреля 2011
Российская премьера: 21 апреля 2011, «Централ Партнершип»
Дата выхода DVD: 20 октября 2011, «Новый Диск»
Дата выхода Blu-Ray: 24 ноября 2011, «Новый Диск»
Страна: Россия
Жанр: мелодрама, комедия
Продолжительность: 01:29:18
Перевод: Не требуется [Лицензия]
Режиссер: Дмитрий Грачев
В ролях: Екатерина Вилкова, Фёдор Бондарчук, Максим Матвеев, Арарат Кещян, Мария Кожевникова, Ксения Каталымова, Андрей Малахов
Описание: Супермодель Соня мечтает о тихом семейном счастье с давним бойфрендом Русланом — самовлюблённым ведущим популярного кулинарного шоу. Но тот не разделяет её мечты, он грезит только о славе и повышении собственного рейтинга, поэтому делает Соне предложение руки и сердца в присутствии толпы репортеров.
В отместку, Соня решает выйти замуж за обычного банковского клерка Сашу. Тот соглашается и тоже назло любимой девушке, Кристине. Уже выйдя из загса, Саша и Соня понимают, что погорячились. Но делать нечего, теперь им приходится изображать перед всеми счастливую влюбленную пару, скрывая взаимную ненависть.
Однако от ненависти до любви…-IMDB | КиноПоиск-Источник/Качество: DVDRip-AVC
Формат: MKV
Видео кодек: H.26x
Аудио кодек: AC3
Видео: 720x382 (1,885); 25,000 fps; 1717 kbps; 0.250 bit/pixel
Аудио: AC3, 6 ch., 48 kHz, ~448.00 kbps
Общее
Уникальный идентификатор : 210395982340577519733573462091654283895 (0x9E48CAD15846E7F7A92E8DE409E8C277)
Полное имя : F:\pirat.ca\Svadba.po.Obmenu.2011.DVDRip.x264.potroks.mkv
Формат : Matroska
Версия формата : Version 2
Размер файла : 1,35 Гбайт
Продолжительность : 1 ч. 29 м.
Общий поток : 2165 Кбит/сек
Название фильма : -=POTROKS=-
Дата кодирования : UTC 2011-10-19 19:35:22
Программа кодирования : mkvmerge v4.9.1 ('Ich will') сборка от Jul 11 2011 23:53:15
Библиотека кодирования : libebml v1.2.1 + libmatroska v1.1.1
Видео
Идентификатор : 1
Формат : AVC
Формат/Информация : Advanced Video Codec
Профиль формата : [email protected]
Параметр CABAC формата : Да
Параметр ReFrames формата : 9 кадров
Идентификатор кодека : V_MPEG4/ISO/AVC
Продолжительность : 1 ч. 29 м.
Битрейт : 1717 Кбит/сек
Ширина : 720 пикселей
Высота : 382 пикселя
Соотношение сторон : 1,885
Режим частоты кадров : Переменный
Частота кадров : 25,000 кадров/сек
Цветовое пространство : YUV
Субдискретизация насыщенности : 4:2:0
Битовая глубина : 8 бит
Тип развёртки : Прогрессивная
Бит/(Пиксели*Кадры) : 0.250
Размер потока : 1,04 Гбайт (77%)
Библиотека кодирования : x264 core 116 r2019M 9cc407d
Настройки программы : cabac=1 / ref=10 / deblock=1:-3:-3 / analyse=0x3:0x133 / me=umh / subme=9 / psy=1 / psy_rd=1.00:0.20 / mixed_ref=1 / me_range=32 / chroma_me=1 / trellis=1 / 8x8dct=1 / cqm=0 / deadzone=21,11 / fast_pskip=1 / chroma_qp_offset=-3 / threads=8 / sliced_threads=0 / nr=0 / decimate=1 / interlaced=0 / bluray_compat=0 / constrained_intra=0 / bframes=3 / b_pyramid=1 / b_adapt=2 / b_bias=0 / direct=3 / weightb=1 / open_gop=0 / weightp=2 / keyint=250 / keyint_min=25 / scenecut=40 / intra_refresh=0 / rc_lookahead=40 / rc=2pass / mbtree=1 / bitrate=1717 / ratetol=1.0 / qcomp=0.60 / qpmin=10 / qpmax=51 / qpstep=4 / cplxblur=20.0 / qblur=0.5 / ip_ratio=1.40 / aq=1:1.00
Аудио
Идентификатор : 2
Формат : AC-3
Формат/Информация : Audio Coding 3
Расширение режима : CM (complete main)
Идентификатор кодека : A_AC3
Продолжительность : 1 ч. 29 м.
Вид битрейта : Постоянный
Битрейт : 448 Кбит/сек
Каналы : 6 каналов
Расположение каналов : Front: L C R, Side: L R, LFE
Частота : 48,0 КГц
Битовая глубина : 16 бит
Метод сжатия : С потерями
Размер потока : 285 Мбайт (21%)
Заголовок : Оригинал
Язык : Russian







Download / Скачать

Хотите скачать бесплатно? Зарегистрируйтесь на сайте (ссылка на регистрацию). Pirat.ca - самый быстрый торрент трекер в рунете!

Как скачивать  ·   Что такое торрент  ·   Рейтинг и ограничения

Пост 23-Ноя-2011 07:29 (спустя 6 часов)

Топик был перенесен из форума Наше Кино в форум Новинки (HD|DVD|BD|TV|SAT|PDTV| - Rips)

Skinwalker
 

MUHA75

Штурман

Пост 23-Ноя-2011 09:33 (спустя 8 часов)

[Q] 

СПАСИБО!
[Профиль]  [ЛС] 
Показать сообщения:    
Ответить на тему

Текущее время: Сегодня 23:49

Часовой пояс: GMT + 4



Вы не можете начинать темы
Вы не можете отвечать на сообщения
Вы не можете редактировать свои сообщения
Вы не можете удалять свои сообщения
Вы не можете голосовать в опросах
Вы не можете прикреплять файлы к сообщениям
Вы не можете скачивать файлы

▼ Вниз