ML
     
  Уважаемый Гость!
Вы можете поддержать проект и зарегистрироваться у наших партнеров - онлайн-стратегия MyLands. При регистрации в игре Вы получите код, который сможете активировать после регистрации на pirat.ca и получить 1000 дублонов.

Ваш код:
aec9a4a936117fb450ba69e519991a0465404b1d
 
     

Жила-была одна баба (Андрей Смирнов) [2011 г., Драма, история, BDRip]

Ответить на тему
 
Автор
Сообщение

Пост 23-Ноя-2011 07:57

[Q] 

Znoi

Флибустьер

--Жила-была одна баба-- Год выпуска: 2011
Производство: Россия
Жанр: Драма, история
Российская премьера:27 октября 2011
Релиз на DVD:24 ноября 2011
Продолжительность: 02:35:39--Режиссер: Андрей Смирнов--В ролях: Дарья Екамасова, Максим Аверин, Нина Русланова, Всеволод Шиловский, Евдокия Германова, Юрий Шевчук, Алексей Серебряков, Алексей Алексеев, Михаил Евланов, Егор Клейменов, Мария Клюквина--Описание: История частной жизни одной женщины и четверых ее мужчин. Главная героиня — неграмотная крестьянка, и действие фильма начинается с ее свадьбы в 1909 году, когда девушку из нищей семьи взяли в богатую, а кончается в 1921 году Антоновским восстанием.-- --Источник/Качество: BDRip
Формат: AVI
Видео кодек: XviD
Аудио кодек: AC3
Видео: XviD, 720х304 pix, 1435 Kbps, 24.000 fps, 0.273 Bits/(Pixel*Frame)
Аудио: АС3, 6 ch, 448 Kbps, 48.0 KHz
General
Complete name : D:\Jila.byla.odna.baba.2011.XviD.BDRip.[pirat.ca].avi
Format : AVI
Format/Info : Audio Video Interleave
Format profile : OpenDML
File size : 2.06 GiB
Duration : 2h 35mn
Overall bit rate : 1 895 Kbps
Writing application : VirtualDubMod 1.5.10.3 | www.virtualdub-fr.org || (build 2550/release)
Writing library : VirtualDubMod build 2550/release
Video
ID : 0
Format : MPEG-4 Visual
Format profile : Advanced [email protected]
Format settings, BVOP : 2
Format settings, QPel : No
Format settings, GMC : No warppoints
Format settings, Matrix : Default (H.263)
Codec ID : XVID
Codec ID/Hint : XviD
Duration : 2h 35mn
Bit rate : 1 435 Kbps
Width : 720 pixels
Height : 304 pixels
Display aspect ratio : 2.35:1
Frame rate : 24.000 fps
Color space : YUV
Chroma subsampling : 4:2:0
Bit depth : 8 bits
Scan type : Progressive
Compression mode : Lossy
Bits/(Pixel*Frame) : 0.273
Stream size : 1.56 GiB (76%)
Writing library : XviD 1.2.1 (UTC 2008-12-04)
Audio
ID : 1
Format : AC-3
Format/Info : Audio Coding 3
Mode extension : CM (complete main)
Codec ID : 2000
Duration : 2h 35mn
Bit rate mode : Constant
Bit rate : 448 Kbps
Channel(s) : 6 channels
Channel positions : Front: L C R, Side: L R, LFE
Sampling rate : 48.0 KHz
Bit depth : 16 bits
Compression mode : Lossy
Stream size : 499 MiB (24%)
Alignment : Split accross interleaves
Interleave, duration : 42 ms (1.00 video frame)
Interleave, preload duration : 500 ms



Download / Скачать

Хотите скачать бесплатно? Зарегистрируйтесь на сайте (ссылка на регистрацию). Pirat.ca - самый быстрый торрент трекер в рунете!

Как скачивать  ·   Что такое торрент  ·   Рейтинг и ограничения



Последний раз редактировалось: Znoi (2011-11-23 08:29), всего редактировалось 1 раз

Пост 23-Ноя-2011 08:19 (спустя 21 минута)

Топик был перенесен из форума Наше Кино в форум Новинки (HD|DVD|BD|TV|SAT|PDTV| - Rips)

Skinwalker
 

egorka st

Корсар

Пост 23-Ноя-2011 08:38 (спустя 40 минут)

[Q] 

Большое спасибо!

_________________
[Профиль]  [ЛС] 

Znoi ®

Флибустьер

1163

Пост 23-Ноя-2011 08:41 (спустя 2 минуты)

[Q] 

Всегда пожалуйста!
[Профиль]  [ЛС] 

Decter

Корсар

Пост 23-Ноя-2011 08:51 (спустя 10 минут)

[Q] 

Спасибо! Много про этот фильм слышал, но еще сам еще не смотрел.. Теперь гляну.. ))
[Профиль]  [ЛС] 

MUHA75

Штурман

Пост 23-Ноя-2011 09:30 (спустя 39 минут)

[Q] 

Спасибо! Как скачаю буду на раздаче)))
[Профиль]  [ЛС] 

?-?-?

Морской Волк

549

Пост 23-Ноя-2011 10:13 (спустя 43 минуты)

[Q] 

Спасибо! Посмотрим!
[Профиль]  [ЛС] 

EDVAR

Легенда

Пост 23-Ноя-2011 10:52 (спустя 38 минут)

[Q] 

Благодарен!!!Читал за этот фильм.

_________________
"Как других судить-вы судьи.Как себя-вы адвокаты"
[Профиль]  [ЛС] 

Pereverzzzev

Лоцман

Пост 23-Ноя-2011 20:14 (спустя 9 часов)

[Q] 

http://www.baby.ru/blogs/post/41563860-17320575/
[Профиль]  [ЛС] 

Hausser

Гроза морей

Пост 03-Дек-2011 15:28 (спустя 9 дней)

[Q] 

Мерзко и чернушно. 02:33:33 фильма - особая благодарность роману абрамовичу и другим буржуинам за помои.
[Профиль]  [ЛС] 

Sergi4

Гроза морей

Пост 17-Янв-2012 23:56 (спустя 1 месяц 14 дней)

[Q] 

спасибо
[Профиль]  [ЛС] 

anonymoys

Гроза морей

901

Пост 31-Янв-2012 08:06 (спустя 13 дней)

[Q] 

спасибо
[Профиль]  [ЛС] 

Дмитий

Лоцман

Пост 25-Апр-2012 16:28 (спустя 2 месяца 25 дней)

[Q] 

Глубокий, интересный фильм. Очень понравился!
[Профиль]  [ЛС] 
Показать сообщения:    
Ответить на тему

Текущее время: Сегодня 02:24

Часовой пояс: GMT + 4



Вы не можете начинать темы
Вы не можете отвечать на сообщения
Вы не можете редактировать свои сообщения
Вы не можете удалять свои сообщения
Вы не можете голосовать в опросах
Вы не можете прикреплять файлы к сообщениям
Вы не можете скачивать файлы

▼ Вниз