ML
     
  Уважаемый Гость!
Вы можете поддержать проект и зарегистрироваться у наших партнеров - онлайн-стратегия MyLands. При регистрации в игре Вы получите код, который сможете активировать после регистрации на pirat.ca и получить 1000 дублонов.

Ваш код:
ec3b26eefbcdc72e08e9fd33c6846bb2ca10f8b1
 
     

Жила-была одна баба (Андрей Смирнов) [2011 г., Драма,Исторический, HDRip]

Ответить на тему
 
Автор
Сообщение

Пост 23-Ноя-2011 10:24

[Q] 

golova123

Лоцман

Жила-была одна баба
Год выпуска: 201
Жанр: Драма,Исторический
Продолжительность: 02:35:39
Режиссер: Андрей Смирнов
В ролях: Дарья Екамасова, Нина Русланова, Всеволод Шиловский, Евдокия Германова, Юрий Шевчук, Алексей Серебряков, Алексей Алексеев, Михаил Евланов, Егор Клейменов, Мария Клюквина
Описание: Псевдоисторический фильм от Андрея Смирнова. История частной жизни одной женщины и четверых ее мужчин. Главная героиня — неграмотная крестьянка, и действие фильма начинается с ее свадьбы в 1909 году, когда девушку из нищей семьи взяли в богатую, а кончается в 1921 году Антоновским восстанием.

Источник/Качество: HDRip
Формат: AVI
Видео кодек: XviD
Аудио кодек: MPEG Audio
Видео: 720x304 (2.37:1), 24 fps, XviD build 63 ~1115 kbps avg, 0.21 bit/pixel
Аудио: 48 kHz, MPEG Layer 3, 2 ch, ~128.00 kbps avg
Общее
Полное имя : D:\1\Zhila.byla.odna.baba.2011.HDRip.avi
Формат : AVI
Формат/Информация : Audio Video Interleave
Размер файла : 1,36 Гбайт
Продолжительность : 2 ч. 35 м.
Общий поток : 1253 Кбит/сек
Библиотека кодирования : VirtualDub build 32507/release
Видео
Идентификатор : 0
Формат : MPEG-4 Visual
Профиль формата : Advanced [email protected]
Параметр BVOP формата : 2
Параметр QPel формата : Нет
Параметр GMC формата : Без точки перехода
Параметр матрицы формата : Default (H.263)
Идентификатор кодека : XVID
Идентификатор кодека/Подсказка : XviD
Продолжительность : 2 ч. 35 м.
Битрейт : 1116 Кбит/сек
Ширина : 720 пикселей
Высота : 304 пикселя
Соотношение сторон : 2,35:1
Частота кадров : 24,000 кадра/сек
Цветовое пространство : YUV
Субдискретизация насыщенности : 4:2:0
Битовая глубина : 8 бит
Тип развёртки : Прогрессивная
Метод сжатия : С потерями
Бит/(Пиксели*Кадры) : 0.212
Размер потока : 1,21 Гбайт (89%)
Библиотека кодирования : XviD 63
Аудио
Идентификатор : 1
Формат : MPEG Audio
Версия формата : Version 1
Профиль формата : Layer 3
Идентификатор кодека : 55
Идентификатор кодека/Подсказка : MP3
Продолжительность : 2 ч. 35 м.
Вид битрейта : Постоянный
Битрейт : 128 Кбит/сек
Каналы : 2 канала
Частота : 48,0 КГц
Метод сжатия : С потерями
Размер потока : 143 Мбайт (10%)
Выравнивание : Разделение по промежуткам
Продолжительность промежутка : 42 мс. (1,00 видеокадр)
Время предзагрузки промежутка : 500 мс.
Библиотека кодирования : LAME3.98.4


Download / Скачать

Хотите скачать бесплатно? Зарегистрируйтесь на сайте (ссылка на регистрацию). Pirat.ca - самый быстрый торрент трекер в рунете!

Как скачивать  ·   Что такое торрент  ·   Рейтинг и ограничения



Последний раз редактировалось: golova123 (2011-11-23 10:46), всего редактировалось 2 раз(а)

Пост 23-Ноя-2011 10:51 (спустя 26 минут)

Топик был перенесен из форума Наше Кино в форум Новинки (HD|DVD|BD|TV|SAT|PDTV| - Rips)

Skinwalker
 

polozm

Легенда

Пост 23-Ноя-2011 15:49 (спустя 5 часов)

[Q] 

спасибо.заинтриговали

_________________
mac mini -2.0 GHz Intel Core i7/ 8 GB DDR3. /Intel HD 3000(512mb)OS X 10.9 Mavericks
[Профиль]  [ЛС] 

Mormynt

Морской Волк

Пост 23-Ноя-2011 16:58 (спустя 1 час 9 минут)

[Q] 

Да уж...

_________________
Все, что в жизни я трачу на себя - пропадает бесследно, все, что раздаю другим, остается со мной!!!
[Профиль]  [ЛС] 

Engener

Морской Волк

Пост 23-Ноя-2011 17:18 (спустя 20 минут)

[Q] 

Голова, давай 700 м, а то места нет, а кино хочется

_________________
Остановите Землю, я сойду!
[Профиль]  [ЛС] 

Ферзь

Корсар

Пост 24-Ноя-2011 09:25 (спустя 16 часов)

[Q] 

Спасибо за фильму. Наслышан, нужно посмотреть....

_________________
[Профиль]  [ЛС] 

stiv622

Лоцман

Пост 24-Ноя-2011 21:56 (спустя 12 часов)

[Q] 

Спасибо за фильм.
[Профиль]  [ЛС] 

valerkak1

Шкипер

Пост 28-Ноя-2011 06:41 (спустя 3 дня)

[Q] 

Познавательно.
[Профиль]  [ЛС] 

Leha-25

Штурман

Пост 28-Ноя-2011 09:39 (спустя 2 часа 57 минут)

[Q] 

Фильм полная чушь уже смотреть не хотелось после получаса, было все ясно. Мне не понравился фильм.
[Профиль]  [ЛС] 

maks-vise

Лоцман

Пост 28-Ноя-2011 16:08 (спустя 6 часов)

[Q] 

Отличный фильм,благодарю за раздачу. Про Антоновское восстание вообще фильмов нет, кроме совкового агитпрома.
[Профиль]  [ЛС] 

ka1iostro

Корсар

Пост 28-Ноя-2011 18:08 (спустя 2 часа)

[Q] 

спасибо, посмотрим
[Профиль]  [ЛС] 

GarySk

Корсар

Пост 01-Дек-2011 15:32 (спустя 2 дня 21 час)

[Q] 

Спасибо!!!!
[Профиль]  [ЛС] 

Ahzool

Корсар

Пост 02-Дек-2011 09:30 (спустя 17 часов)

[Q] 

За что жЪ вы Русь то так не любите, режиссёры??? Что жЪ не можно чтоль хорошее, доброе снять? Зачем же мразоту-то на свет выпускать?

_________________
Si non es occupatus quid natum moriendo occupatus es,beauty creatur vultus.
[Профиль]  [ЛС] 

Engener

Морской Волк

Пост 09-Янв-2012 12:11 (спустя 1 месяц 7 дней)

[Q] 

Земля таперя не ваша, земля таперя народная! (Цитата из фильма). Что касается мразоты,Ашзол, то в истории России было много всего. Наша история это не только кокаиновый гламур и расписные рушники, да вот такая она,и только страус может прятать головенку от правды, пытаясь зарыть ее в бетон!

_________________
Остановите Землю, я сойду!
[Профиль]  [ЛС] 

Domagal

Штурман

Пост 10-Янв-2012 22:37 (спустя 1 день 10 часов)

[Q] 

спасибо
[Профиль]  [ЛС] 

ficus42

Корсар

Пост 13-Янв-2012 17:30 (спустя 2 дня 18 часов)

[Q] 

спасибо, посмотрим
[Профиль]  [ЛС] 

sd535

Флибустьер

1795

Пост 15-Янв-2012 03:23 (спустя 1 день 9 часов)

[Q] 

[Профиль]  [ЛС] 

Колямба

Морской Волк

Пост 16-Янв-2012 01:04 (спустя 21 час)

[Q] 

вот так вот
[Профиль]  [ЛС] 

гаррисмолл

Шкипер

Пост 27-Янв-2012 00:10 (спустя 10 дней)

[Q] 

Фильм хорош.
[Профиль]  [ЛС] 

nanuk

Лоцман

Пост 03-Апр-2012 20:31 (спустя 2 месяца 7 дней)

[Q] 

[Профиль]  [ЛС] 

alex-sn

Штурман

Пост 09-Апр-2012 03:25 (спустя 5 дней)

[Q] 

Такие полярные отзывы... Сейчас посмотрю и выскажу свое авторитетное мнение)))
[Профиль]  [ЛС] 

Рында41

Морской Волк

Пост 11-Апр-2012 19:49 (спустя 2 дня 16 часов)

[Q] 

Образ главной героини конечно собирательный, да только смысл не в том, могло ли это всё с ней одной произойти или нет, а в том, что так действительно жили, что в судьбах людей такое было на самом деле...
[Профиль]  [ЛС] 
Показать сообщения:    
Ответить на тему

Текущее время: Сегодня 03:47

Часовой пояс: GMT + 4



Вы не можете начинать темы
Вы не можете отвечать на сообщения
Вы не можете редактировать свои сообщения
Вы не можете удалять свои сообщения
Вы не можете голосовать в опросах
Вы не можете прикреплять файлы к сообщениям
Вы не можете скачивать файлы

▼ Вниз