ML
     
  Уважаемый Гость!
Вы можете поддержать проект и зарегистрироваться у наших партнеров - онлайн-стратегия MyLands. При регистрации в игре Вы получите код, который сможете активировать после регистрации на pirat.ca и получить 1000 дублонов.

Ваш код:
062e2babcc491faeb40d496cf9a498ac3df6cdd0
 
     

Жила-была одна баба (Андрей Смирнов) [2011 г., драма, история, BDRip-AVC] (Original)

Ответить на тему
 
Автор
Сообщение

Пост 23-Ноя-2011 13:43

[Q] 

иZVeRG

Штурман

Жила-была одна баба
Год выпуска: 2011
Российская премьера: 27 октября 2011
Дата выхода DVD: 24 ноября 2011
Производство: Россия
Жанр: драма, история
Продолжительность: 02:35:05
Перевод: Не требуется
Оригинальный аудиопоток: Русский
Режиссер: Андрей Смирнов
Киностудия : Рекун-синема
В ролях: Дарья Екамасова, Нина Русланова, Всеволод Шиловский, Евдокия Германова, Юрий Шевчук, Алексей Серебряков, Алексей Алексеев, Михаил Евланов, Егор Клейменов, Мария Клюквина
Описание: История частной жизни одной женщины и четверых ее мужчин. Главная героиня — неграмотная крестьянка, и действие фильма начинается с ее свадьбы в 1909 году, когда девушку из нищей семьи взяли в богатую, а кончается в 1921 году Антоновским восстанием.
Сэмпл, IMDB, КиноПоиск
Источник/Качество: BDRip-AVC
Формат: MKV
Видео кодек: H.26x
Аудио кодек: AC3
Видео: 1056 x 448 (2.357), AVC, 1500 Кбит/сек, 24.000 fps
Аудио: AC-3, 384 Кбит/сек, 6 каналов, 48,0 КГц
Общее
Уникальный идентификатор : 205650191619246097588592180710994365274 (0x9AB6C9451D37815AAF625E6D5BF84B5A)
Полное имя : Zhila.byla.odna.baba.2011.BDRip-AVC.иZVeRG.mkv
Формат : Matroska
Версия формата : Version 2
Размер файла : 2,05 Гбайт
Продолжительность : 2 ч. 35 м.
Общий поток : 1885 Кбит/сек
Название фильма : Zhila.byla.odna.baba - иZVeRG
Видео
Идентификатор : 1
Формат : AVC
Формат/Информация : Advanced Video Codec
Профиль формата : [email protected]
Параметр CABAC формата : Да
Параметр ReFrames формата : 16 кадров
Режим смешивания : Header stripping
Идентификатор кодека : V_MPEG4/ISO/AVC
Продолжительность : 2 ч. 35 м.
Битрейт : 1500 Кбит/сек
Ширина : 1056 пикселей
Высота : 448 пикселей
Соотношение сторон : 2,35:1
Частота кадров : 24,000 кадра/сек
Цветовое пространство : YUV
Субдискретизация насыщенности : 4:2:0
Битовая глубина : 8 бит
Тип развёртки : Прогрессивная
Бит/(Пиксели*Кадры) : 0.132
Размер потока : 1,59 Гбайт (78%)
Библиотека кодирования : x264 core 119 r2106 07efeb4
Настройки программы : cabac=1 / ref=16 / deblock=1:-3:-3 / analyse=0x3:0x113 / me=umh / subme=10 / psy=1 / psy_rd=1.10:0.20 / mixed_ref=1 / me_range=32 / chroma_me=1 / trellis=2 / 8x8dct=1 / cqm=0 / deadzone=21,11 / fast_pskip=1 / chroma_qp_offset=-3 / threads=12 / sliced_threads=0 / nr=0 / decimate=1 / interlaced=0 / bluray_compat=0 / constrained_intra=0 / bframes=8 / b_pyramid=2 / b_adapt=2 / b_bias=0 / direct=3 / weightb=1 / open_gop=0 / weightp=2 / keyint=250 / keyint_min=24 / scenecut=40 / intra_refresh=0 / rc_lookahead=60 / rc=2pass / mbtree=1 / bitrate=1500 / ratetol=1.0 / qcomp=0.60 / qpmin=0 / qpmax=69 / qpstep=4 / cplxblur=20.0 / qblur=0.5 / ip_ratio=1.40 / aq=2:0.80
Default : Да
Forced : Нет
Аудио
Идентификатор : 2
Формат : AC-3
Формат/Информация : Audio Coding 3
Расширение режима : CM (complete main)
Режим смешивания : Header stripping
Идентификатор кодека : A_AC3
Продолжительность : 2 ч. 35 м.
Вид битрейта : Постоянный
Битрейт : 384 Кбит/сек
Каналы : 6 каналов
Расположение каналов : Front: L C R, Side: L R, LFE
Частота : 48,0 КГц
Битовая глубина : 16 бит
Метод сжатия : С потерями
Размер потока : 428 Мбайт (20%)
Default : Да
Forced : Нет






Download / Скачать

Хотите скачать бесплатно? Зарегистрируйтесь на сайте (ссылка на регистрацию). Pirat.ca - самый быстрый торрент трекер в рунете!

Как скачивать  ·   Что такое торрент  ·   Рейтинг и ограничения

Пост 23-Ноя-2011 13:58 (спустя 15 минут)

Топик был перенесен из форума Художественные фильмы (Зарубежное кино) в форум Новинки (HD|DVD|BD|TV|SAT|PDTV| - Rips)

Skinwalker
 

bruder

Флибустьер

Пост 23-Ноя-2011 18:10 (спустя 4 часа)

[Q] 

Не Максим ли Аверин на 2-м скрине, а в титрах его вроде нет...
За фильм спасибо!

_________________
[Профиль]  [ЛС] 

иZVeRG ®

Штурман

170

Пост 23-Ноя-2011 18:25 (спустя 15 минут)

[Q] 

Не Максим ли Аверин на 2-м скрине
Он самый)

_________________
О нас думают плохо лишь те, кто хуже нас, а те кто лучше нас, им просто не до нас.
© Омар Хайям.
[Профиль]  [ЛС] 

Mormynt

Морской Волк

Пост 23-Ноя-2011 18:30 (спустя 5 минут)

[Q] 

Саткудова он взялса?

_________________
Все, что в жизни я трачу на себя - пропадает бесследно, все, что раздаю другим, остается со мной!!!
[Профиль]  [ЛС] 

and48

Корсар

169

Пост 06-Фев-2012 00:14 (спустя 2 месяца 12 дней)

[Q] 

Спасибо , посмотрим.
[Профиль]  [ЛС] 
Показать сообщения:    
Ответить на тему

Текущее время: Сегодня 17:39

Часовой пояс: GMT + 4



Вы не можете начинать темы
Вы не можете отвечать на сообщения
Вы не можете редактировать свои сообщения
Вы не можете удалять свои сообщения
Вы не можете голосовать в опросах
Вы не можете прикреплять файлы к сообщениям
Вы не можете скачивать файлы

▼ Вниз