ML
     
  Уважаемый Гость!
Вы можете поддержать проект и зарегистрироваться у наших партнеров - онлайн-стратегия MyLands. При регистрации в игре Вы получите код, который сможете активировать после регистрации на pirat.ca и получить 1000 дублонов.

Ваш код:
bc31d8aef74c92e19ad67e34a8fa63c3b9b812fb
 
     

Любовь-Морковь 3 (Сергей Гинзбург / Sergej Ginzburg) [2011 г., Комедия, DVDRip] (Original)

Ответить на тему
 
Автор
Сообщение

Пост 24-Ноя-2011 09:00

[Q] 

lavric666

Штурман

Любовь-Морковь 3
Год выпуска: 2011
Мировая премьера: 1 марта 2011
Российская премьера: 3 марта 2011, «Двадцатый Век Фокс СНГ
Дата выхода DVD: 31 марта 2011, «Двадцатый Век Фокс СНГ»
Производство: Россия
Жанр: Комедия
Продолжительность: 01:33:41
Перевод: Original
Режиссер: Сергей Гинзбург / Sergej Ginzburg
В ролях: Кристина Орбакайте, Гоша Куценко, Лия Ахеджакова, Владимир Меньшов, Алексей Гуськов, Вячеслав Манучаров, Алина Булынко, Денис Парамонов, Михаил Козаков, Андрей Ургант, Станислав Говорухин, Ольга Орлова, Дарья Дроздовская, Даниил Белых, Борис Оплетаев, Алла Будницкая, Людмила Гаврилова, Екатерина Маликова, Сергей Гинзбург, Зураб Гурцкая, Алексей Крицкий, Галина Кашковская, Мария Зыкова, Сергей Полонский, Ирис Иванова, Анна Давлетьярова, Мария Бордовских, Артем Карманов, Денис Елисеев, Дмитрий Блохин, Ярослав Стаховский
Описание: В семье Голубевых — опять стихийное бедствие. Без предупреждения к ним нагрянула теща — утонченная любительница музыки и поэзии. А за ней свекор — бравый полковник, простой как Устав Вооруженных сил. Хотя со времени свадьбы прошло почти пятнадцать лет, мама Марины по-прежнему недолюбливает Андрея, а отец Андрея даже не скрывает, что мечтал о другой невестке. А уж когда старики сталкиваются друг с другом — это гром и молния! И как всегда, в самый сложный момент на пороге появляется профессор Коган, специалист по решению семейных проблем.
Источник/Качество: DVDRip
Формат: AVI
Видео кодек: XviD
Аудио кодек: AC3
Видео: 720x304 (2.37:1), 25 fps, XviD MPEG-4 ~1632 kbps avg, 0.30 bit/pixel
Аудио: 48 kHz, AC3 Dolby Digital, 3/2 (L,C,R,l,r) + LFE ch, ~448 kbps
Общее
Полное имя : D:\Торренты\На раздачу\Ljubov.morkov.3.2011.XviD.DVDRip.avi
Формат : AVI
Формат/Информация : Audio Video Interleave
Размер файла : 1,37 Гбайт
Продолжительность : 1 ч. 33 м.
Общий поток : 2090 Кбит/сек
Программа кодирования : VirtualDubMod 1.5.4.1 (build 2178/release)
Библиотека кодирования : VirtualDubMod build 2178/release
Видео
Идентификатор : 0
Формат : MPEG-4 Visual
Профиль формата : Advanced [email protected]
Параметр BVOP формата : 2
Параметр QPel формата : Нет
Параметр GMC формата : Без точки перехода
Параметр матрицы формата : Default (MPEG)
Режим смешивания : Сжатый битовый поток
Идентификатор кодека : XVID
Идентификатор кодека/Подсказка : XviD
Продолжительность : 1 ч. 33 м.
Битрейт : 1633 Кбит/сек
Ширина : 720 пикселей
Высота : 304 пикселя
Соотношение сторон : 2,35:1
Частота кадров : 25,000 кадров/сек
Цветовое пространство : YUV
Субдискретизация насыщенности : 4:2:0
Битовая глубина : 8 бит
Тип развёртки : Прогрессивная
Метод сжатия : С потерями
Бит/(Пиксели*Кадры) : 0.298
Размер потока : 1,07 Гбайт (78%)
Библиотека кодирования : XviD 58
Аудио
Идентификатор : 1
Формат : AC-3
Формат/Информация : Audio Coding 3
Расширение режима : CM (complete main)
Идентификатор кодека : 2000
Продолжительность : 1 ч. 33 м.
Вид битрейта : Постоянный
Битрейт : 448 Кбит/сек
Каналы : 6 каналов
Расположение каналов : Front: L C R, Side: L R, LFE
Частота : 48,0 КГц
Битовая глубина : 16 бит
Метод сжатия : С потерями
Размер потока : 300 Мбайт (21%)
Выравнивание : Разделение по промежуткам
Продолжительность промежутка : 40 мс. (1,00 видеокадр)
Время предзагрузки промежутка : 500 мс.




Download / Скачать

Хотите скачать бесплатно? Зарегистрируйтесь на сайте (ссылка на регистрацию). Pirat.ca - самый быстрый торрент трекер в рунете!

Как скачивать  ·   Что такое торрент  ·   Рейтинг и ограничения



Последний раз редактировалось: lavric666 (2011-11-25 06:21), всего редактировалось 1 раз

Пост 24-Ноя-2011 09:33 (спустя 32 минуты)

Топик был перенесен из форума Художественные фильмы (Зарубежное кино) в форум Новинки (HD|DVD|BD|TV|SAT|PDTV| - Rips)

Skinwalker
 

Tosya bosya

Лоцман

Пост 24-Ноя-2011 11:18 (спустя 2 часа 18 минут)

[Q] 

Пишет файла нет
[Профиль]  [ЛС] 

Ambeg

Корсар

Пост 24-Ноя-2011 22:06 (спустя 10 часов)

[Q] 

Нда кто то торент удалил
[Профиль]  [ЛС] 

Pesok

Гроза морей

Пост 21-Янв-2012 09:00 (спустя 1 месяц 26 дней)

[Q] 

спасибо - половинка любит такие фильмы

_________________
[Профиль]  [ЛС] 

^_^ Шеля ^_^

Шкипер

Пост 12-Фев-2012 12:52 (спустя 22 дня)

[Q] 

[Профиль]  [ЛС] 

pryanik_1503

Лоцман

Пост 28-Фев-2012 00:07 (спустя 15 дней)

[Q] 

Первая часть самая нормальная, последнюю лучше бы не снимали
[Профиль]  [ЛС] 

$S.W.A.T$

Морской Волк

Пост 01-Мар-2012 00:36 (спустя 2 дня)

[Q] 

согласен,последняя часть отстой.
[Профиль]  [ЛС] 

ураган

Пост 19-Авг-2012 15:10 (спустя 5 месяцев 18 дней)

[Q] 

ay хороший фильм.
[Профиль]  [ЛС] 

hohol541

Корсар

Пост 29-Дек-2012 10:18 (спустя 4 месяца 9 дней)

[Q] 

Фильм лёгкий,жене понравилось.
[Профиль]  [ЛС] 

UncleFather

Легенда

Пост 23-Мар-2013 16:18 (спустя 2 месяца 25 дней)

[Q] 


_________________
Одни боялись Пью, другие - Билли Бонса, а меня... меня боялся сам Флинт
[Профиль]  [ЛС] 

oleg55555

Штурман

Пост 24-Мар-2013 11:24 (спустя 19 часов)

[Q] 

Кристина уже не та, стареет...
[Профиль]  [ЛС] 

Aurums

Корсар

Пост 14-Апр-2013 21:56 (спустя 21 день)

[Q] 

пребор с морковкой, на второй надо было заканчивать
[Профиль]  [ЛС] 
Показать сообщения:    
Ответить на тему

Текущее время: Сегодня 11:57

Часовой пояс: GMT + 4



Вы не можете начинать темы
Вы не можете отвечать на сообщения
Вы не можете редактировать свои сообщения
Вы не можете удалять свои сообщения
Вы не можете голосовать в опросах
Вы не можете прикреплять файлы к сообщениям
Вы не можете скачивать файлы

▼ Вниз