ML
     
  Уважаемый Гость!
Вы можете поддержать проект и зарегистрироваться у наших партнеров - онлайн-стратегия MyLands. При регистрации в игре Вы получите код, который сможете активировать после регистрации на pirat.ca и получить 1000 дублонов.

Ваш код:
bc31d8aef74c92e19ad67e34a8fa63c3b9b812fb
 
     

Охотник за караванами (Сергей Чекалов) [2010 г., военная драма, DVDRip]

Ответить на тему
 
Автор
Сообщение

Пост 24-Ноя-2011 13:26

[Q] 

dred1980

Лоцман

    Охотник за караванами
    Год выпуска: 2010
    Жанр: военная драма
    Продолжительность: 2:04:84
    Режиссер: Сергей Чекалов
    В ролях: Алексей Серебряков, Андрей Саминин, Алексей Лонгин,
    Всеволод Хованский, Карина Андоленко, Евгения Лютая,
    Владимир Смирнов, Михаил Тарабукин, Иван Шибанов,
    Никита Емшанов, Игорь Миркурбанов
    Описание: Афганистан 1986 год. Появившееся у моджахедов переносные зенитные комплексы «Стингер» грозят положить конец безраздельному государству в воздухе советской авиации. Командир разведбата майор Оковалков получает задание добыть образец этого нового оружия. Для этого ему необходимо захватить небольшой караван, который согласно полученным разведданным будет перевозить 1 или 2 «Стингера» и не будет иметь значительной охраны. Однако караван оказывается не просто большим. Он огромный с хорошо вооруженной охраной и прикрытием в «зеленке». Поняв, что операция провалена, Оковалко принимает решение переждать прохождение колонны и вернуться в часть, но его планы нарушает автоматная очередь, случайно выпущенная молодым неопытным солдатом Мануйловым. Завязывается неравный бой, разведчики прорываются сквозь караван. В этом прорыве гибнет практически весь отряд. Уцелело только семеро воинов. Рация потеряна. У Оковалкова только один способ довести маленький отряд на базу - пеший марш длинной в 45 километров", которые становятся тяжелыми испытанием.
    Источник/Качество: DVDRip
    Формат: AVI
    Видео кодек: XviD
    Аудио кодек: AC3
    Видео: 720x400 (1.80:1) 25 fps 1524 kbps 0.21 bit/pixel
    Аудио: AC3 Dolby Digital 48 kHz 192 kbps


    Полное имя : C:\Users\Алдексей\Downloads\Охотники за караванами (4.serii.iz.4) (2010) DVDRip\1_Ohotniky.za.karavanami.[pirat.ca].avi
    Формат : AVI
    Формат/Информация : Audio Video Interleave
    Размер файла : 599 Мбайт
    Продолжительность : 48 м.
    Общий поток : 1726 Кбит/сек
    Программа кодирования : VirtualDubMod 1.5.4.1 (build 2178/release)
    Библиотека кодирования : VirtualDubMod build 2178/release
    Видео
    Идентификатор : 0
    Формат : MPEG-4 Visual
    Профиль формата : Advanced [email protected]
    Параметр BVOP формата : 2
    Параметр QPel формата : Нет
    Параметр GMC формата : Без точки перехода
    Параметр матрицы формата : Выборочная
    Идентификатор кодека : XVID
    Идентификатор кодека/Подсказка : XviD
    Продолжительность : 48 м.
    Битрейт : 1524 Кбит/сек
    Ширина : 720 пикселей
    Высота : 400 пикселей
    Соотношение сторон : 16:9
    Частота кадров : 25,000 кадров/сек
    Цветовое пространство : YUV
    Субдискретизация насыщенности : 4:2:0
    Битовая глубина : 8 бит
    Тип развёртки : Прогрессивная
    Метод сжатия : С потерями
    Бит/(Пиксели*Кадры) : 0.212
    Размер потока : 529 Мбайт (88%)
    Библиотека кодирования : XviD 58
    Аудио
    Идентификатор : 1
    Формат : AC-3
    Формат/Информация : Audio Coding 3
    Расширение режима : CM (complete main)
    Идентификатор кодека : 2000
    Продолжительность : 48 м.
    Вид битрейта : Постоянный
    Битрейт : 192 Кбит/сек
    Каналы : 2 канала
    Расположение каналов : Front: L R
    Частота : 48,0 КГц
    Битовая глубина : 16 бит
    Метод сжатия : С потерями
    Размер потока : 66,6 Мбайт (11%)
    Выравнивание : Разделение по промежуткам
    Продолжительность промежутка : 40 мс. (1,00 видеокадр)
    Время предзагрузки промежутка : 500 мс.
    Download / Скачать

    Хотите скачать бесплатно? Зарегистрируйтесь на сайте (ссылка на регистрацию). Pirat.ca - самый быстрый торрент трекер в рунете!

    Как скачивать  ·   Что такое торрент  ·   Рейтинг и ограничения



    Последний раз редактировалось: dred1980 (2011-11-25 14:32), всего редактировалось 1 раз

    Пост 25-Ноя-2011 18:06 (спустя 1 день 4 часа)

    Топик был перенесен из форума Наше Кино в форум Российские фильмы

    Skinwalker
     

    andreks

    Шкипер

    Пост 05-Мар-2012 22:24 (спустя 3 месяца 11 дней)

    [Q] 

    [Профиль]  [ЛС] 

    Sergi4

    Гроза морей

    Пост 15-Мар-2012 12:11 (спустя 9 дней)

    [Q] 

    [Профиль]  [ЛС] 

    анатолий321

    Штурман

    Пост 26-Мар-2012 20:17 (спустя 11 дней)

    [Q] 

    Cпасибо!!!
    [Профиль]  [ЛС] 

    Фисташка

    Пост 15-Авг-2012 12:10 (спустя 4 месяца 19 дней)

    [Q] 

    .
    [Профиль]  [ЛС] 

    FeudorM

    Корсар

    Пост 01-Окт-2012 09:12 (спустя 1 месяц 15 дней)

    [Q] 

    Спасибо, заценим
    [Профиль]  [ЛС] 

    mully

    Лоцман

    Пост 23-Дек-2012 00:34 (спустя 2 месяца 21 день)

    [Q] 

    смотреть всем воинам.
    [Профиль]  [ЛС] 

    hohol541

    Корсар

    Пост 29-Дек-2012 00:10 (спустя 5 дней)

    [Q] 

    Что за фильм?Почему не знаю?
    [Профиль]  [ЛС] 

    hohol541

    Корсар

    Пост 29-Дек-2012 10:01 (спустя 9 часов)

    [Q] 

    Скорость бешенная-несколько кб/с
    [Профиль]  [ЛС] 

    ФедяКросс

    Морской Волк

    1

    Пост 02-Авг-2014 15:24 (спустя 1 год 7 месяцев)

    [Q] 

    Ребят, ну вернитесь на раздачу!!
    [Профиль]  [ЛС] 
    Показать сообщения:    
    Ответить на тему

    Текущее время: Сегодня 11:59

    Часовой пояс: GMT + 4



    Вы не можете начинать темы
    Вы не можете отвечать на сообщения
    Вы не можете редактировать свои сообщения
    Вы не можете удалять свои сообщения
    Вы не можете голосовать в опросах
    Вы не можете прикреплять файлы к сообщениям
    Вы не можете скачивать файлы

    ▼ Вниз