ML
     
  Уважаемый Гость!
Вы можете поддержать проект и зарегистрироваться у наших партнеров - онлайн-стратегия MyLands. При регистрации в игре Вы получите код, который сможете активировать после регистрации на pirat.ca и получить 1000 дублонов.

Ваш код:
74c28610d77aaac24ba694c4128f3b9b46b04220
 
     

Елена (Андрей Звягинцев) [2011 г., драма, мелодрама, DVDRip]

Ответить на тему
 
Автор
Сообщение

Пост 25-Ноя-2011 01:46

[Q] 

zyyx

--Елена-- Год выпуска: 2011
Мировая премьера: 21 мая 2011
Российская премьера: 29 сентября 2011, «Нон-Стоп Продакшн»
Дата выхода DVD: 23 ноября 2011, «Кармен Видео»
Дата выхода Blu-Ray: 30 ноября 2011, «Кармен Видео»
Страна: Россия
Жанр: драма, мелодрама
Продолжительность: 01:44:52
Перевод: Не требуется [Лицензия]
Режиссер: Андрей Звягинцев
В ролях: Андрей Смирнов, Надежда Маркина, Елена Лядова, Алексей Розин, Игорь Огурцов, Евгения Конушкина, Юрий Борисов, Рустам Ахмадеев, Анна Гуляренко, Василий Мичков
Описание: История пожилой семейной пары Елены и Владимира. Богатый и скупой Владимир относится к Елене скорее как к служанке, чем к жене. У обоих есть дети от первого брака: у Елены — сын, у Владимира — дочь. Её сын — безработный, который не может прокормить свою жену и двоих детей, они живут только на деньги, которые дает им Елена. Дочь Владимира — богемная девушка.
Владимир попадает в больницу с сердечным приступом. Там его навещает дочь, с которой у него никогда не было хороших отношений, но ее визит все меняет. Выйдя из больницы, Владимир объявляет Елене, что он решил изменить завещание — все деньги получит его дочь, а Елене достанется лишь небольшая пожизненная рента и она не сможет помочь своему сыну. Скромная и послушная Елена решается на отчаянный поступок.-Сэмпл | КиноПоиск-Источник/Качество: DVDRip
Формат: AVI
Видео кодек: XviD
Аудио кодек: AC3
Видео: 720x304 (2.37:1), 25 fps, XviD build 47, 1472 kbps avg, 0.27 bit/pixel
Аудио: 48 kHz, AC3 Dolby Digital, 3/2 (L,C,R,l,r) + LFE ch, 384 kbps
Общее
Полное имя : F:\pirat.ca\Elena.2011.O.DVDRip.avi
Формат : AVI
Формат/Информация : Audio Video Interleave
Размер файла : 1,37 Гбайт
Продолжительность : 1 ч. 44 м.
Общий поток : 1866 Кбит/сек
Название фильма : Elena.2011.O.DVDRip
Программа кодирования : VirtualDubMod 1.5.4.1 (build 2178/release)
Видео
Идентификатор : 0
Формат : MPEG-4 Visual
Профиль формата : Advanced [email protected]
Параметр BVOP формата : 2
Параметр QPel формата : Нет
Параметр GMC формата : Без точки перехода
Параметр матрицы формата : Выборочная
Идентификатор кодека : XVID
Идентификатор кодека/Подсказка : XviD
Продолжительность : 1 ч. 44 м.
Битрейт : 1473 Кбит/сек
Ширина : 720 пикселей
Высота : 304 пикселя
Соотношение сторон : 2,35:1
Частота кадров : 25,000 кадров/сек
Цветовое пространство : YUV
Субдискретизация насыщенности : 4:2:0
Битовая глубина : 8 бит
Тип развёртки : Прогрессивная
Метод сжатия : С потерями
Бит/(Пиксели*Кадры) : 0.269
Размер потока : 1,08 Гбайт (79%)
Библиотека кодирования : XviD 1.2.0.dev47 (UTC 2006-11-01)
Аудио
Идентификатор : 1
Формат : AC-3
Формат/Информация : Audio Coding 3
Расширение режима : CM (complete main)
Идентификатор кодека : 2000
Продолжительность : 1 ч. 44 м.
Вид битрейта : Постоянный
Битрейт : 384 Кбит/сек
Каналы : 6 каналов
Расположение каналов : Front: L C R, Side: L R, LFE
Частота : 48,0 КГц
Битовая глубина : 16 бит
Метод сжатия : С потерями
Задержка видео : 500 мс.
Размер потока : 288 Мбайт (21%)
Выравнивание : Разделение по промежуткам
Продолжительность промежутка : 40 мс. (1,00 видеокадр)
Время предзагрузки промежутка : 500 мс.



Download / Скачать

Хотите скачать бесплатно? Зарегистрируйтесь на сайте (ссылка на регистрацию). Pirat.ca - самый быстрый торрент трекер в рунете!

Как скачивать  ·   Что такое торрент  ·   Рейтинг и ограничения

Пост 25-Ноя-2011 09:10 (спустя 7 часов)

Топик был перенесен из форума Наше Кино в форум Новинки (HD|DVD|BD|TV|SAT|PDTV| - Rips)

Skinwalker
 

amigomaz

Штурман

Пост 25-Ноя-2011 09:29 (спустя 7 часов)

[Q] 

Спасибо! Фильм наделал много шума, надо смотреть!
[Профиль]  [ЛС] 

xxxLOGICxxx

Корсар

Пост 25-Ноя-2011 16:22 (спустя 6 часов)

[Q] 

Спасибо! Пиратка рулит!
[Профиль]  [ЛС] 

ильдар

Лоцман

Пост 27-Ноя-2011 07:50 (спустя 1 день 15 часов)

[Q] 

да уж.. столько цинизма в одном фильме. история про мать, которая рухнула в ад из за своей семьи. фильм конечно стоящий
[Профиль]  [ЛС] 

GarySk

Корсар

Пост 01-Дек-2011 19:31 (спустя 4 дня)

[Q] 

Спасибо!!!!!
[Профиль]  [ЛС] 

VanoCHIN

Морской Волк

Пост 09-Дек-2011 19:46 (спустя 8 дней)

[Q] 

не впечатлил....
[Профиль]  [ЛС] 

ficus42

Корсар

Пост 13-Янв-2012 17:28 (спустя 1 месяц 3 дня)

[Q] 

Спаибо!
[Профиль]  [ЛС] 

GarySk

Корсар

Пост 26-Янв-2012 18:54 (спустя 13 дней)

[Q] 

Фильм сильный!
[Профиль]  [ЛС] 

MakAVP

Морской Волк

18

Пост 14-Фев-2012 18:54 (спустя 18 дней)

[Q] 


_________________

[Профиль]  [ЛС] 

nikolai444444

Лоцман

Пост 23-Мар-2012 21:36 (спустя 1 месяц 9 дней)

[Q] 

Спасибо! Посмотрим.
[Профиль]  [ЛС] 

co6aka 6e3 yxa

Морской Волк

Пост 01-Мар-2015 19:13 (спустя 2 года 11 месяцев)

[Q] 

Сволочь эта Елена!

_________________
А незнакомок мы целуем робко
[Профиль]  [ЛС] 
Показать сообщения:    
Ответить на тему

Текущее время: Сегодня 09:59

Часовой пояс: GMT + 4



Вы не можете начинать темы
Вы не можете отвечать на сообщения
Вы не можете редактировать свои сообщения
Вы не можете удалять свои сообщения
Вы не можете голосовать в опросах
Вы не можете прикреплять файлы к сообщениям
Вы не можете скачивать файлы

▼ Вниз