ML
     
  Уважаемый Гость!
Вы можете поддержать проект и зарегистрироваться у наших партнеров - онлайн-стратегия MyLands. При регистрации в игре Вы получите код, который сможете активировать после регистрации на pirat.ca и получить 1000 дублонов.

Ваш код:
dbd0d701284cde74a1f34d06ce20b7bc75a73e75
 
     

Елена (Андрей Звягинцев) [2011 г., драма, мелодрама, DVDRip]

Ответить на тему
 
Автор
Сообщение

Пост 25-Ноя-2011 02:59

[Q] 

zyyx

--Елена-- Год выпуска: 2011
Мировая премьера: 21 мая 2011
Российская премьера: 29 сентября 2011, «Нон-Стоп Продакшн»
Дата выхода DVD: 23 ноября 2011, «Кармен Видео»
Дата выхода Blu-Ray: 30 ноября 2011, «Кармен Видео»
Страна: Россия
Жанр: драма, мелодрама
Продолжительность: 01:44:52
Перевод: Не требуется [Лицензия]
Режиссер: Андрей Звягинцев
В ролях: Андрей Смирнов, Надежда Маркина, Елена Лядова, Алексей Розин, Игорь Огурцов, Евгения Конушкина, Юрий Борисов, Рустам Ахмадеев, Анна Гуляренко, Василий Мичков
Описание: История пожилой семейной пары Елены и Владимира. Богатый и скупой Владимир относится к Елене скорее как к служанке, чем к жене. У обоих есть дети от первого брака: у Елены — сын, у Владимира — дочь. Её сын — безработный, который не может прокормить свою жену и двоих детей, они живут только на деньги, которые дает им Елена. Дочь Владимира — богемная девушка.
Владимир попадает в больницу с сердечным приступом. Там его навещает дочь, с которой у него никогда не было хороших отношений, но ее визит все меняет. Выйдя из больницы, Владимир объявляет Елене, что он решил изменить завещание — все деньги получит его дочь, а Елене достанется лишь небольшая пожизненная рента и она не сможет помочь своему сыну. Скромная и послушная Елена решается на отчаянный поступок.-Сэмпл | КиноПоиск-Источник/Качество: DVDRip
Формат: AVI
Видео кодек: XviD
Аудио кодек: MP3
Видео: 640x272 (2.35:1), 25 fps, XviD MPEG-4, 798 kbps avg, 0.18 bit/pixel
Аудио: 48 kHz, MPEG Layer 3, 2 ch, 128.00 kbps avg
Общее
Полное имя : F:\pirat.ca\Elena.2011.O.DVDRip.700MB.avi
Формат : AVI
Формат/Информация : Audio Video Interleave
Размер файла : 703 Мбайт
Продолжительность : 1 ч. 44 м.
Общий поток : 937 Кбит/сек
Программа кодирования : VirtualDubMod 1.5.10.3 | www.virtualdub-fr.org || (build 2550/release)
Библиотека кодирования : VirtualDubMod build 2550/release
Видео
Идентификатор : 0
Формат : MPEG-4 Visual
Профиль формата : Advanced [email protected]
Параметр BVOP формата : 2
Параметр QPel формата : Нет
Параметр GMC формата : Без точки перехода
Параметр матрицы формата : Default (H.263)
Режим смешивания : Сжатый битовый поток
Идентификатор кодека : XVID
Идентификатор кодека/Подсказка : XviD
Продолжительность : 1 ч. 44 м.
Битрейт : 799 Кбит/сек
Ширина : 640 пикселей
Высота : 272 пикселя
Соотношение сторон : 2,35:1
Частота кадров : 25,000 кадров/сек
Цветовое пространство : YUV
Субдискретизация насыщенности : 4:2:0
Битовая глубина : 8 бит
Тип развёртки : Прогрессивная
Метод сжатия : С потерями
Бит/(Пиксели*Кадры) : 0.184
Размер потока : 599 Мбайт (85%)
Библиотека кодирования : XviD 64
Аудио
Идентификатор : 1
Формат : MPEG Audio
Версия формата : Version 1
Профиль формата : Layer 3
Идентификатор кодека : 55
Идентификатор кодека/Подсказка : MP3
Продолжительность : 1 ч. 44 м.
Вид битрейта : Постоянный
Битрейт : 128 Кбит/сек
Каналы : 2 канала
Частота : 48,0 КГц
Метод сжатия : С потерями
Размер потока : 96,0 Мбайт (14%)
Выравнивание : Соединение по промежуткам
Продолжительность промежутка : 40 мс. (1,00 видеокадр)
Время предзагрузки промежутка : 504 мс.
Библиотека кодирования : LAME3.98r
Настройки программы : -m s -V 4 -q 2 -lowpass 17 -b 128


Download / Скачать

Хотите скачать бесплатно? Зарегистрируйтесь на сайте (ссылка на регистрацию). Pirat.ca - самый быстрый торрент трекер в рунете!

Как скачивать  ·   Что такое торрент  ·   Рейтинг и ограничения

Пост 25-Ноя-2011 09:09 (спустя 6 часов)

Топик был перенесен из форума Наше Кино в форум Новинки (HD|DVD|BD|TV|SAT|PDTV| - Rips)

Skinwalker
 

ev5

Морской Волк

1286

Пост 28-Ноя-2011 18:27 (спустя 3 дня)

[Q] 

кино ни о чем!!!
[Профиль]  [ЛС] 

yagora

Лоцман

Пост 03-Фев-2012 20:51 (спустя 2 месяца 5 дней)

[Q] 

здесь озвучка очень плохая.
[Профиль]  [ЛС] 
Показать сообщения:    
Ответить на тему

Текущее время: Сегодня 18:31

Часовой пояс: GMT + 4



Вы не можете начинать темы
Вы не можете отвечать на сообщения
Вы не можете редактировать свои сообщения
Вы не можете удалять свои сообщения
Вы не можете голосовать в опросах
Вы не можете прикреплять файлы к сообщениям
Вы не можете скачивать файлы

▼ Вниз