ML
     
  Уважаемый Гость!
Вы можете поддержать проект и зарегистрироваться у наших партнеров - онлайн-стратегия MyLands. При регистрации в игре Вы получите код, который сможете активировать после регистрации на pirat.ca и получить 1000 дублонов.

Ваш код:
bb0cb47ee786a33f751af5a500dd264c9487bfac
 
     

Бабло (Константин Буслов) [2011 г., комедия, криминал, HDRip-AVC]

Ответить на тему
 
Автор
Сообщение

Пост 25-Ноя-2011 13:59

[Q] 

zyyx

--Бабло
«Кино для тех, кто живет в 10-е»
-- Год выпуска: 2011
Мировая премьера: 13 октября 2011
Российская премьера: 13 октября 2011, «Наше Кино»
Дата выхода DVD: 22 ноября 2011, «Lizard Cinema Trade»
Дата выхода Blu-Ray: 22 ноября 2011, «Lizard Cinema Trade»
Страна: Россия
Жанр: комедия, криминал
Продолжительность: 01:31:59
Перевод: Не требуется [Лицензия]
Режиссер: Константин Буслов
В ролях: Мария Берсенева, Роман Мадянов, Гия Гогишвили, Георгий Гургулия, Михаил Месхи, Яков Кучеревский, Владимир Сычев, Кирилл Сафонов, Сергей Насибов, Сергей Болотаев
Описание: Москва. Наши дни. В центре города из машины двое воришек крадут сумку с миллионом евро, думая, что им, наконец, повезло, и даже не представляя, во что на самом деле они ввязались. За деньгами начинается настоящая охота. Перед искушением не может устоять никто. Сумма в виде двух пачек денег по полмиллиона евро делает абсолютно разных людей одинаковыми в своих поступках и желаниях: А началось все с того, что «миллионщик» Григорий не захотел честно платить налоги.-IMDB | КиноПоиск-Источник/Качество: HDRip-AVC
Формат: MKV
Видео кодек: H.26x
Аудио кодек: AC3
Видео: 1024x552 (1,86:1), 23,976 кадр/сек, 1809 Кбит/сек, 0.133 bit/pixel
Аудио: AC3, 6 ch., 48 kHz, ~448.00 kbps
Общее
Уникальный идентификатор : 205304918535244991908608587377831009753 (0x9A7449FE1CD565D09780CCA536775DD9)
Полное имя : D:\pirat.ca\Bablo.2011.HDRip.x264.potroks.mkv
Формат : Matroska
Версия формата : Version 2
Размер файла : 1,45 Гбайт
Продолжительность : 1 ч. 31 м.
Общий поток : 2258 Кбит/сек
Название фильма : -=POTROKS=-
Дата кодирования : UTC 2011-11-25 02:28:46
Программа кодирования : mkvmerge v5.0.1 ('Es ist Sommer') built on Oct 9 2011 11:55:43
Библиотека кодирования : libebml v1.2.2 + libmatroska v1.3.0
Видео
Идентификатор : 1
Формат : AVC
Формат/Информация : Advanced Video Codec
Профиль формата : [email protected]
Параметр CABAC формата : Да
Параметр ReFrames формата : 12 кадров
Идентификатор кодека : V_MPEG4/ISO/AVC
Продолжительность : 1 ч. 31 м.
Битрейт : 1809 Кбит/сек
Ширина : 1024 пикселя
Высота : 552 пикселя
Соотношение сторон : 1,862
Режим частоты кадров : Переменный
Частота кадров : 23,976 кадра/сек
Цветовое пространство : YUV
Субдискретизация насыщенности : 4:2:0
Битовая глубина : 8 бит
Тип развёртки : Прогрессивная
Бит/(Пиксели*Кадры) : 0.133
Размер потока : 1,13 Гбайт (78%)
Заголовок : Bablo.2011.HDRip.x264.potroks
Библиотека кодирования : x264 core 116 r2019M 9cc407d
Настройки программы : cabac=1 / ref=13 / deblock=1:-2:-2 / analyse=0x3:0x133 / me=umh / subme=10 / psy=1 / psy_rd=1.00:0.20 / mixed_ref=1 / me_range=32 / chroma_me=1 / trellis=2 / 8x8dct=1 / cqm=0 / deadzone=21,11 / fast_pskip=1 / chroma_qp_offset=-3 / threads=8 / sliced_threads=0 / nr=0 / decimate=1 / interlaced=0 / bluray_compat=0 / constrained_intra=0 / bframes=3 / b_pyramid=1 / b_adapt=2 / b_bias=0 / direct=3 / weightb=1 / open_gop=0 / weightp=2 / keyint=230 / keyint_min=23 / scenecut=40 / intra_refresh=0 / rc_lookahead=40 / rc=2pass / mbtree=1 / bitrate=1809 / ratetol=1.0 / qcomp=0.60 / qpmin=10 / qpmax=51 / qpstep=4 / cplxblur=20.0 / qblur=0.5 / ip_ratio=1.40 / aq=1:1.00
Язык : Russian
Аудио
Идентификатор : 2
Формат : AC-3
Формат/Информация : Audio Coding 3
Расширение режима : CM (complete main)
Идентификатор кодека : A_AC3
Продолжительность : 1 ч. 31 м.
Вид битрейта : Постоянный
Битрейт : 448 Кбит/сек
Каналы : 6 каналов
Расположение каналов : Front: L C R, Side: L R, LFE
Частота : 48,0 КГц
Битовая глубина : 16 бит
Метод сжатия : С потерями
Размер потока : 295 Мбайт (20%)
Заголовок : Оригинал
Язык : Russian









Download / Скачать

Хотите скачать бесплатно? Зарегистрируйтесь на сайте (ссылка на регистрацию). Pirat.ca - самый быстрый торрент трекер в рунете!

Как скачивать  ·   Что такое торрент  ·   Рейтинг и ограничения

Пост 25-Ноя-2011 18:00 (спустя 4 часа)

Топик был перенесен из форума Наше Кино в форум Новинки (HD|DVD|BD|TV|SAT|PDTV| - Rips)

Skinwalker
 

Pesok

Гроза морей

Пост 15-Янв-2012 11:45 (спустя 1 месяц 19 дней)

[Q] 

спасибо!

_________________
[Профиль]  [ЛС] 

Колямба

Морской Волк

Пост 16-Янв-2012 01:00 (спустя 13 часов)

[Q] 

норм
[Профиль]  [ЛС] 

Bozo

Флибустьер

Пост 21-Янв-2012 20:19 (спустя 5 дней)

[Q] 

вполне можно посмотреть, спасибо )
[Профиль]  [ЛС] 

ArmSlave

Штурман

Пост 21-Янв-2012 20:43 (спустя 23 минуты)

[Q] 

Так себе если честно
[Профиль]  [ЛС] 

U-858

Флибустьер

Пост 28-Янв-2012 22:50 (спустя 7 дней)

[Q] 

ФЕНЬКС!!!!!!!!!!!!!!
[Профиль]  [ЛС] 

anonymoys

Гроза морей

901

Пост 31-Янв-2012 08:06 (спустя 2 дня 9 часов)

[Q] 

ФЕНЬКС!!!!!!!!!!!!!!
[Профиль]  [ЛС] 

anonymoys

Гроза морей

901

Пост 05-Фев-2012 12:08 (спустя 5 дней)

[Q] 

[Профиль]  [ЛС] 

polyk

Флибустьер

Пост 18-Окт-2015 14:08 (спустя 3 года 8 месяцев)

[Q] 

класс!!!!!!!!!!!!!!!!!!! Всем качать!!!
[Профиль]  [ЛС] 

platon18

Гроза морей

Пост 21-Окт-2015 09:25 (спустя 2 дня 19 часов)

[Q] 

опять контейнер МКВ, не читает у меня телик его
[Профиль]  [ЛС] 
Показать сообщения:    
Ответить на тему

Текущее время: Сегодня 02:22

Часовой пояс: GMT + 4



Вы не можете начинать темы
Вы не можете отвечать на сообщения
Вы не можете редактировать свои сообщения
Вы не можете удалять свои сообщения
Вы не можете голосовать в опросах
Вы не можете прикреплять файлы к сообщениям
Вы не можете скачивать файлы

▼ Вниз